Kodi Community Forum
XBMC for Linux VDPAU - NVIDIA GPU video decoding support (now in the mainline SVN) - Printable Version

+- Kodi Community Forum (http://forum.kodi.tv)
+-- Forum: Help and Support (/forumdisplay.php?fid=33)
+--- Forum: Kodi General Help and Support (/forumdisplay.php?fid=111)
+---- Forum: Linux and Live support (/forumdisplay.php?fid=52)
+---- Thread: XBMC for Linux VDPAU - NVIDIA GPU video decoding support (now in the mainline SVN) (/showthread.php?tid=45525)



- mcfan - 2009-06-11 13:21

I think it is an known issue (haven't found about it) but with VDPAU there
is no thumbnail shown when bookmarking video.

Should i create a ticket for it?


- ERamseth - 2009-06-11 14:34

Haggy Wrote:Sir, yessir! 185.18.14 fixes the 8200 issues finally. i have my xbmc set to 1920x1080p @50hz. and get 50fps right from startup with safefull disabled and strictbinding enabled!

Unfortunately I do not experience this. I still have to start windowed then full screen it or else i get about 12fps.

EDIT: that is on an 8300


- Haggy - 2009-06-11 16:10

hmm, weird. it definietly works for me here. can upload screenshots if you like


- xnappo - 2009-06-12 01:34

Haggy Wrote:EDIT: Try disabing Triplebuffer in xorg.conf - enabling it instantly crashes X for me also.

Thanks a lot Haggy! That was the issue. I really appreciate it!

xnappo


- marcuszurhorst - 2009-06-12 15:15

Hello all,

I need some help debugging why I cannot play this famous "killa sample" HD material with VDPAU.
(First of all, I googled for "killa sample" and found a 10 seconds video where a hell lot of runners run through the country. Is this the correct sample? - I'm wondering because I expected full HD to be 1920x1080px, but this video is way larger...)

My hard-/software:
--> Asus P5N7A-VM board with Nvidia 9300 chip onboard
--> connected via HDMI to a Toshiba 37" LCD TV ("HD ready" only: 1366x768px)
--> Celeron-D 440 (2GHz)
--> 2 GB RAM (dual channel)
--> Mandriva 2009.1
--> Kernel 2.6.29.3
--> XBMC 9.04.1
--> Nvidia driver version: 185.18.14

SD Content plays fine (at 85% processor load), and the GUI is smooth. Great.

Last weekend, I compiled a somewhat weird modeline for my Xorg.conf according to a tutorial that I found. I went through some pain to finally get a full screen X11 desktop drawn on the screen without overscan an other nastyness.
Actually, I really fine with the quality of the output.

This modeline (and it's the only one in my xorg.conf file) is forced, and size is unusual: 1824x1020px!


When I now play this "killa sample" video sniplet, I either get:
- 9 FPS, I can see something like in slow-motion, and I have 100% CPU load.
(obviously not VDPAU, I guess)

- 50 FPS, and a ugly pattern on the screen after I forced the display to use VDPAU.


I scanned the xbmc.log file and found some error messages, but the file size is >1 MB, so I don't know how to extract the relevant information.

The extract below seems interesting. I am wondering whether VDPAU can do scaling to this weird target resolution, or if this not possible due to technical limitations.

Can someone help out with a suggestion?


Thanks a lot!
Marcus

Code:
14:16:40 T:2772892560 M:1724960768    INFO: ffmpeg: Input #0, matroska, from '/home/marcus/Videos/HighRes.mkv':
14:16:40 T:2772892560 M:1724960768    INFO: ffmpeg:   Duration: 00:00:10.00, start: 0.000000, bitrate: N/A
14:16:40 T:2772892560 M:1724960768    INFO: ffmpeg:     Stream #0.0: Video: h264, yuv420p, 3840x2160, PAR 1:1 DAR 16:9, 50 tbr, 1k tbn, 100 tbc
14:16:40 T:2772892560 M:1724960768  NOTICE: Opening video stream: 0 source: 256
14:16:40 T:2772892560 M:1724960768  NOTICE: Creating video codec with codec id: 28
14:16:40 T:2772892560 M:1724960768   DEBUG: FactoryCodec - Video:  - Opening
14:16:40 T:2772892560 M:1724960768  NOTICE: CDVDVideoCodecFFmpeg::Open() Creating VDPAU(3840x2160)
14:16:40 T:2772892560 M:1724960768   DEBUG: Found 6 fbconfigs.
14:16:40 T:2772892560 M:1724960768   DEBUG: Using fbconfig index 0.
14:16:40 T:2772892560 M:1724960768    INFO: GLX: Created Pixmap context
14:16:40 T:2772892560 M:1724960768    INFO: GLX: Creating shared Pixmap context
14:16:40 T:2772892560 M:1723817984    INFO: GL: Initialised Pixmap
14:16:41 T:2772892560 M:1723322368  NOTICE: CDVDVideoCodecFFmpeg::Open() Using codec: H.264 / AVC / MPEG-4 AVC / MPEG-4 part 10 (VDPAU acceleration)
14:16:41 T:2772892560 M:1723322368   DEBUG: FactoryCodec - Video: ff-h264_vdpau - Opened
14:16:41 T:2772892560 M:1723322368  NOTICE: Creating video thread
14:16:41 T:2764499856 M:1723322368   DEBUG: Running thread 2764499856
14:16:41 T:2764499856 M:1723322368   DEBUG: thread start, auto delete: 0
14:16:41 T:2764499856 M:1723322368  NOTICE: running thread: video_thread
14:16:41 T:3045566304 M:1723322368   DEBUG: Playback has started
14:16:41 T:3045566304 M:1723322368   DEBUG: Load black-back.png: 0.1ms (bundled)
14:16:41 T:3045566304 M:1723322368   DEBUG: Load black-back2.png: 0.5ms (bundled)
14:16:41 T:3045566304 M:1723322368   DEBUG: Load PlayerControls-RepeatNF.png: 0.1ms (bundled)
14:16:41 T:3045566304 M:1723322368   DEBUG: CGUIInfoManager::SetCurrentMovie(/home/marcus/Videos/HighRes.mkv)
14:16:41 T:3045566304 M:1723322368   DEBUG: GetMovieId (/home/marcus/Videos/HighRes.mkv), query = select idMovie from movie where idFile=3
14:16:41 T:3045566304 M:1723322368   DEBUG: GetEpisodeId (/home/marcus/Videos/HighRes.mkv), query = select idEpisode from episode where idFile=3
14:16:41 T:3045566304 M:1723322368   DEBUG: GetMusicVideoId (/home/marcus/Videos/HighRes.mkv), query = select idMVideo from musicvideo where idFile=3
14:16:41 T:2789677968 M:1721184256   DEBUG: Thread 2789677968 terminating (autodelete)
14:16:41 T:2764499856 M:1710419968  NOTICE: screenWidth:1824 widWidth:3840
14:16:41 T:2764499856 M:1702641664   ERROR:  (VDPAU) Error: The size of a supplied object does not match the object it is being used with.(20) at VDPAU.cpp:656
14:16:41 T:2764499856 M:1702641664   ERROR:  (VDPAU) Error: The system does not have enough resources to complete the requested operation at this time.(23) at VDPAU.cpp:687
14:16:41 T:2764499856 M:1702641664   ERROR:  (VDPAU) Error: The system does not have enough resources to complete the requested operation at this time.(23) at VDPAU.cpp:696
14:16:41 T:2764499856 M:1702641664   ERROR:  (VDPAU) Error: The system does not have enough resources to complete the requested operation at this time.(23) at VDPAU.cpp:696
14:16:41 T:2764499856 M:1702641664   ERROR:  (VDPAU) Error: The system does not have enough resources to complete the requested operation at this time.(23) at VDPAU.cpp:696
14:16:41 T:2764499856 M:1702592512  NOTICE: VDPAU Decoder capabilities:
14:16:41 T:2764499856 M:1702592512  NOTICE: name          level macbs width height
14:16:41 T:2764499856 M:1702592512  NOTICE: ------------------------------------
14:16:41 T:2764499856 M:1702592512  NOTICE: MPEG1             0  8192  2048  2048
14:16:41 T:2764499856 M:1702592512  NOTICE: MPEG2_SIMPLE      3  8192  2048  2048
14:16:41 T:2764499856 M:1702592512  NOTICE: MPEG2_MAIN        3  8192  2048  2048
14:16:41 T:2764499856 M:1702592512  NOTICE: H264_MAIN        41  8190  2032  2048
14:16:41 T:2764499856 M:1702592512  NOTICE: H264_HIGH        41  8190  2032  2048
14:16:41 T:2764499856 M:1702592512  NOTICE: VC1_SIMPLE        1  8190  2048  2048
14:16:41 T:2764499856 M:1702592512  NOTICE: VC1_MAIN          2  8190  2048  2048
14:16:41 T:2764499856 M:1702592512  NOTICE: VC1_ADVANCED      4  8190  2048  2048
14:16:41 T:2764499856 M:1702592512   ERROR:  (VDPAU) Error: An invalid handle value was provided.(3) at VDPAU.cpp:865
14:16:41 T:2764499856 M:1703219200   DEBUG: CDVDPlayerVideo - CDVDMsg::GENERAL_RESYNC(40000.000000, 1)
14:16:41 T:2764499856 M:1697394688   ERROR:  (VDPAU) Error: An invalid handle value was provided.(3) at VDPAU.cpp:865
14:16:41 T:2764499856 M:1697394688   ERROR:  (VDPAU) Error: The system does not have enough resources to complete the requested operation at this time.(23) at VDPAU.cpp:780
14:16:41 T:2764499856 M:1693229056   ERROR:  (VDPAU) Error: An invalid handle value was provided.(3) at VDPAU.cpp:865
14:16:41 T:2764499856 M:1693229056   ERROR:  (VDPAU) Error: An invalid handle value was provided.(3) at VDPAU.cpp:167
14:16:41 T:2764499856 M:1693229056   ERROR:  (VDPAU) Error: An invalid handle value was provided.(3) at VDPAU.cpp:167
14:16:41 T:2764499856 M:1693229056   ERROR:  (VDPAU) Error: An invalid handle value was provided.(3) at VDPAU.cpp:179
14:16:41 T:2764499856 M:1693229056   ERROR:  (VDPAU) Error: An invalid handle value was provided.(3) at VDPAU.cpp:229
14:16:42 T:2764499856 M:1693167616   ERROR:  (VDPAU) Error: An invalid handle value was provided.(3) at VDPAU.cpp:940
14:16:42 T:2764499856 M:1693167616  NOTICE:  fps: 50.000000, pwidth: 3840, pheight: 2160, dwidth: 3840, dheight: 2160
14:16:42 T:2764499856 M:1693167616   DEBUG: OutputPicture - change configuration. 3840x2160. framerate: 50.00
14:16:42 T:2764499856 M:1693167616  NOTICE: Display resolution ADJUST : default: 1824x1020 @ 50.00Hz (13)
14:16:42 T:2764499856 M:1693167616 WARNING: Upscale: selected algorithm 1
14:16:42 T:3045566304 M:1693167616   DEBUG: Activating window ID: 12005
14:16:42 T:3045566304 M:1693167616   DEBUG: Checking if window ID 12005 is locked.
14:16:42 T:3045566304 M:1693167616   DEBUG: ------------------- GUI_MSG_WINDOW_DEINIT
14:16:42 T:3045566304 M:1693167616   DEBUG:
14:16:42 T:3045566304 M:1693167616   DEBUG: -------------------


14:16:42 T:2764499856 M:1693167616   ERROR:  (VDPAU) Error: The system does not have enough resources to complete the requested operation at this time.(23) at


VDPAU.cpp:780
14:16:42 T:2764499856 M:1689001984   ERROR:  (VDPAU) Error: An invalid handle value was provided.(3) at VDPAU.cpp:865
14:16:42 T:2764499856 M:1689001984   ERROR:  (VDPAU) Error: An invalid handle value was provided.(3) at VDPAU.cpp:940
14:16:42 T:2764499856 M:1689001984   ERROR:  (VDPAU) Error: An invalid handle value was provided.(3) at VDPAU.cpp:865
14:16:42 T:2764499856 M:1689001984   ERROR:  (VDPAU) Error: An invalid handle value was provided.(3) at VDPAU.cpp:940
14:16:42 T:2764499856 M:1689001984   ERROR:  (VDPAU) Error: The system does not have enough resources to complete the requested operation at this time.(23) at VDPAU.cpp:780



- Hannes The Hun - 2009-06-12 15:24

I have no idea what video you downloaded

the "official killa sample" is the bird scene from BBC's Planet Earth Blurays and can be found here: http://rapidshare.com/files/82525583/killa.sampla.x264.mkv.html


- marcuszurhorst - 2009-06-12 16:28

Ok, this may be issue # 1 Oo


Thanks for the link. I downloaded this one now. And now I have a hell lot of birds. Wow.Big Grin
I have the renderer set to "auto", but it is not using VDPAU. I get 10-11 FPS, and have 100% CPU load.


I'll scan the log for relevant information. I feel that need to assign more RAM to the GPU probably. Don't know.
(I understood a Nvidia changelog that this is done automatically, but I may be wrong here...)


Regards,
Marcus


- Haggy - 2009-06-12 16:32

You have to force VDPAU in settings. it will gracefully drop back to GLSL if it's not supported. Auto does not enable VDPAU even if available. Also make sure you have 512MB assigned to the IGP and you are running dualchannel. i can play killa with some minor glitches and judder on my 8300.


- motd2k - 2009-06-12 17:43

Quote:3840x2160
Shocked


- pyrates - 2009-06-12 17:49

3840x2160 at 50 fps? That's 4k material, of course it won't play. No hardware yet on the consumer side to play that back yet. You don't even have a high enough resolution to show all the detail of of it.

I'd like to know where you got this 4k sample from btw. It be a new standard to live up to even though we won't have the resources to play it for a couple years.


- marcuszurhorst - 2009-06-12 19:16

Hehe. that happened when I googled "killa sample", that simple.
Combined with the facts that I a) did not know what I'm looking for and b) there is a slight language barrier, I ended up with this sample.

http://thepiratebay.org/torrent/4197285/Killer_Sample_-_Quad_Full_High_Definition


But as I mentioned, I have now similar trouble with the killa birds sample :-)
I will increase IGP memory tomorrow morning and try it again.


BTW: The whole XBMC GUI is pretty fast, but from a newbie point of view, I have really difficulties to overview the various menus. Why are there two independent video setups?


Oh, and is there a easy way to go back to the defaults? - Just want to make sure that I haven't screwed up with my settings. Is deleting ~/.xbmc the right thing to do?


Cheers,
Marcus


- mkortstiege - 2009-06-12 19:54

Yeah deleting ~/.xbmc will do the job


- marcuszurhorst - 2009-06-13 10:34

Ok, it almost works now.

But I have a horizontal "scan line" (like on CRT TVs??) running slowly through the video.
Still, be birds fly smooth, and sound is clear.

Full pastebin is here:
http://pastebin.ca/1458694


I tried to get some relevant infos here as well:
Code:
03:53:59 T:3044128608 M:1486716928    INFO:  GUI format 1824x1020 1824x1020 @ 50.00Hz (Full Screen)

03:54:17 T:3044128608 M:1471639552  NOTICE: DVDPlayer: Opening: /home/marcus/Videos/killa.sampla.x264.mkv

03:54:17 T:2841365392 M:1458294784    INFO: ffmpeg: Input #0, matroska, from '/home/marcus/Videos/killa.sampla.x264.mkv':
03:54:17 T:2841365392 M:1458294784    INFO: ffmpeg:   Duration: 00:00:23.04, start: 0.000000, bitrate: N/A
03:54:17 T:2841365392 M:1458294784    INFO: ffmpeg:     Stream #0.0: Video: h264, yuv420p, 1920x1080, PAR 1:1 DAR 16:9, 47.92 tbr, 1k tbn, 47.95 tbc
03:54:17 T:2841365392 M:1458294784    INFO: ffmpeg:     Stream #0.1: Audio: ac3, 48000 Hz, 5.1, s16

03:54:17 T:2841365392 M:1458294784  NOTICE: CDVDVideoCodecFFmpeg::Open() Creating VDPAU(1920x1080)
03:54:17 T:2841365392 M:1458294784   DEBUG: Found 6 fbconfigs.
03:54:17 T:2841365392 M:1458294784   DEBUG: Using fbconfig index 0.
03:54:17 T:2841365392 M:1458294784    INFO: GLX: Created Pixmap context
03:54:17 T:2841365392 M:1458294784    INFO: GLX: Creating shared Pixmap context
03:54:17 T:2841365392 M:1456992256    INFO: GL: Initialised Pixmap
03:54:18 T:2841365392 M:1456463872  NOTICE: CDVDVideoCodecFFmpeg::Open() Using codec: H.264 / AVC / MPEG-4 AVC / MPEG-4 part 10 (VDPAU acceleration)
03:54:18 T:2841365392 M:1456463872   DEBUG: FactoryCodec - Video: ff-h264_vdpau - Opened
03:54:18 T:2841365392 M:1456463872  NOTICE: Creating video thread
03:54:18 T:2826488720 M:1456463872   DEBUG: Running thread 2826488720
03:54:18 T:2826488720 M:1456463872   DEBUG: thread start, auto delete: 0
03:54:18 T:2826488720 M:1456463872  NOTICE: running thread: video_thread

03:54:18 T:3044128608 M:1456463872   DEBUG: Playback has started
03:54:18 T:2841365392 M:1456463872    INFO: Loading skin file: DialogProgress.xml

03:54:18 T:3044128608 M:1456463872   DEBUG: CGUIInfoManager::SetCurrentMovie(/home/marcus/Videos/killa.sampla.x264.mkv)

03:54:18 T:2826488720 M:1456463872   DEBUG: CDVDPlayerVideo - CDVDMsg::GENERAL_SYNCHRONIZE
03:54:18 T:2826488720 M:1456463872   DEBUG: CDVDPlayerVideo - CDVDMsg::GENERAL_RESYNC(83000.000000, 1)
03:54:18 T:2849758096 M:1456463872   DEBUG: Thread 2849758096 terminating (autodelete)

03:54:18 T:2826488720 M:1432023040   ERROR: ffmpeg: [h264_vdpau] number of reference frames exceeds max (probably corrupt input), discarding one

[ ~20 identical lines deleted ]

03:54:18 T:2826488720 M:1431875584   ERROR: ffmpeg: [h264_vdpau] number of reference frames exceeds max (probably corrupt input), discarding one

03:54:18 T:2826488720 M:1431875584  NOTICE: screenWidth:1824 widWidth:1920
03:54:18 T:2826488720 M:1425231872  NOTICE: VDPAU Decoder capabilities:
03:54:18 T:2826488720 M:1425231872  NOTICE: name          level macbs width height
03:54:18 T:2826488720 M:1425231872  NOTICE: ------------------------------------
03:54:18 T:2826488720 M:1425231872  NOTICE: MPEG1             0  8192  2048  2048
03:54:18 T:2826488720 M:1425231872  NOTICE: MPEG2_SIMPLE      3  8192  2048  2048
03:54:18 T:2826488720 M:1425231872  NOTICE: MPEG2_MAIN        3  8192  2048  2048
03:54:18 T:2826488720 M:1425231872  NOTICE: H264_MAIN        41  8190  2032  2048
03:54:18 T:2826488720 M:1425231872  NOTICE: H264_HIGH        41  8190  2032  2048
03:54:18 T:2826488720 M:1425231872  NOTICE: VC1_SIMPLE        1  8190  2048  2048
03:54:18 T:2826488720 M:1425231872  NOTICE: VC1_MAIN          2  8190  2048  2048
03:54:18 T:2826488720 M:1425231872  NOTICE: VC1_ADVANCED      4  8190  2048  2048


03:54:18 T:2826488720 M:1425231872  NOTICE:  fps: 47.916668, pwidth: 1920, pheight: 1080, dwidth: 1920, dheight: 1080

03:54:18 T:2826488720 M:1425231872   DEBUG: OutputPicture - change configuration. 1920x1080. framerate: 47.92

03:54:18 T:2826488720 M:1425231872  NOTICE: Display resolution AUTO : 1824x1020 @ 50.00Hz (Full Screen) (12)

03:54:18 T:2826488720 M:1425231872 WARNING: Upscale: selected algorithm 1

03:54:18 T:3044128608 M:1426448384  NOTICE: Using GL_TEXTURE_2D
03:54:18 T:3044128608 M:1426448384   DEBUG: GL: Requested render method: 4
03:54:18 T:3044128608 M:1426448384  NOTICE: GL: Using VDPAU render method

03:54:18 T:3044128608 M:1426448384  NOTICE: GL: NPOT texture support detected
03:54:18 T:3044128608 M:1426448384   DEBUG: GL: Creating Y NPOT texture of size 1920 x 1080
03:54:18 T:3044128608 M:1426448384   DEBUG: GL: Creating U NPOT texture of size 960 x 540
03:54:18 T:3044128608 M:1426448384   DEBUG: GL: Creating V NPOT texture of size 960 x 540
03:54:18 T:3044128608 M:1426448384   DEBUG: GL: Creating Y NPOT texture of size 1920 x 1080
03:54:18 T:3044128608 M:1426448384   DEBUG: GL: Creating U NPOT texture of size 960 x 270
03:54:18 T:3044128608 M:1426448384   DEBUG: GL: Creating V NPOT texture of size 960 x 270
03:54:18 T:3044128608 M:1426448384   DEBUG: GL: Creating Y NPOT texture of size 1920 x 1080
03:54:18 T:3044128608 M:1426448384   DEBUG: GL: Creating U NPOT texture of size 960 x 270
03:54:18 T:3044128608 M:1426448384   DEBUG: GL: Creating V NPOT texture of size 960 x 270
03:54:18 T:3044128608 M:1426337792   DEBUG: GL: Creating Y NPOT texture of size 1920 x 1080
03:54:18 T:3044128608 M:1426337792   DEBUG: GL: Creating U NPOT texture of size 960 x 540
03:54:18 T:3044128608 M:1426337792   DEBUG: GL: Creating V NPOT texture of size 960 x 540
03:54:18 T:3044128608 M:1426337792   DEBUG: GL: Creating Y NPOT texture of size 1920 x 1080
03:54:18 T:3044128608 M:1426337792   DEBUG: GL: Creating U NPOT texture of size 960 x 270
03:54:18 T:3044128608 M:1426337792   DEBUG: GL: Creating V NPOT texture of size 960 x 270
03:54:18 T:3044128608 M:1426337792   DEBUG: GL: Creating Y NPOT texture of size 1920 x 1080
03:54:18 T:3044128608 M:1426337792   DEBUG: GL: Creating U NPOT texture of size 960 x 270
03:54:18 T:3044128608 M:1426337792   DEBUG: GL: Creating V NPOT texture of size 960 x 270
03:54:41 T:2818096016 M:1425387520 WARNING: CDVDMessageQueue(audio)::Get - retrieved last data packet of queue
03:54:41 T:2818096016 M:1425387520   DEBUG: CDVDPlayerAudio - CDVDMsg::GENERAL_EOF
03:54:41 T:2826488720 M:1425387520 WARNING: CDVDMessageQueue(video)::Get - retrieved last data packet of queue
03:54:42 T:2841365392 M:1425387520  NOTICE: CDVDPlayer::OnExit()
03:54:42 T:2841365392 M:1425387520  NOTICE: DVDPlayer: eof, waiting for queues to empty
03:54:42 T:2841365392 M:1425387520  NOTICE: DVDPlayer: closing audio stream
03:54:42 T:2841365392 M:1425387520  NOTICE: Closing audio stream
03:54:42 T:2841365392 M:1425387520  NOTICE: CDVDMessageQueue(audio)::WaitUntilEmpty
03:54:42 T:2818096016 M:1425387520   DEBUG: CDVDPlayerAudio - CDVDMsg::GENERAL_SYNCHRONIZE
03:54:42 T:2841365392 M:1425387520  NOTICE: Waiting for audio thread to exit
03:54:42 T:2818096016 M:1425387520   DEBUG: CDVDPlayerAudio::Process - Abort received, exiting thread
03:54:42 T:2818096016 M:1425387520  NOTICE: thread end: CDVDPlayerAudio::OnExit()
03:54:42 T:2818096016 M:1425387520   DEBUG: Thread 2818096016 terminating
03:54:42 T:2841365392 M:1425387520  NOTICE: Closing audio device

03:54:42 T:2826488720 M:1425408000    INFO: CDVDPlayerVideo - Stillframe detected, switching to forced 47.916668 fps

03:54:43 T:2841365392 M:1425371136  NOTICE: Deleting audio codec
03:54:43 T:2841365392 M:1425371136  NOTICE: DVDPlayer: closing video stream
03:54:43 T:2841365392 M:1425371136  NOTICE: Closing video stream
03:54:43 T:2841365392 M:1425371136  NOTICE: CDVDMessageQueue(video)::WaitUntilEmpty
03:54:43 T:2826488720 M:1425371136   DEBUG: CDVDPlayerVideo - CDVDMsg::GENERAL_SYNCHRONIZE
03:54:43 T:2826488720 M:1425371136   ERROR: Got MSGQ_ABORT or MSGO_IS_ERROR return true
03:54:43 T:2826488720 M:1425371136  NOTICE: thread end: video_thread
03:54:43 T:2826488720 M:1425371136   DEBUG: Thread 2826488720 terminating
03:54:43 T:2841365392 M:1425371136  NOTICE: waiting for video thread to exit
03:54:43 T:2841365392 M:1425371136  NOTICE: deleting video codec
03:54:43 T:2841365392 M:1446952960  NOTICE: Deleting m_Surface in CVDPAU
03:54:43 T:2841365392 M:1446952960    INFO: GLX: Destroying glPixmap
03:54:43 T:2841365392 M:1446952960    INFO: GLX: Destroying XPixmap
03:54:43 T:2841365392 M:1446952960  NOTICE: CDVDPlayer::OnExit() deleting demuxer
03:54:43 T:2841365392 M:1446952960  NOTICE: CDVDPlayer::OnExit() deleting input stream
03:54:43 T:2841365392 M:1446952960   DEBUG: Playback has finished
03:54:43 T:2841365392 M:1446952960   DEBUG: Thread 2841365392 terminating
03:54:44 T:3044128608 M:1446952960    INFO: GL: ARB Imaging extension supported
03:54:44 T:3044128608 M:1441386496   ERROR: (VDPAU) m_Surface is NULL



- Haggy - 2009-06-13 11:07

ERamseth Wrote:Unfortunately I do not experience this. I still have to start windowed then full screen it or else i get about 12fps.

EDIT: that is on an 8300

Ok, i looked a bit deeper into the settings. It seems like using the "(Fullscreen)" resolution, i get exactly half the fps that is shown, so it's 25fps for the 50Hz mode. Using f.e. the "1920x1080@50Hz" resolution however i get 50fps w/o a problem. Same for "1920x1080@24Hz" and so on... those resolutions are available since i modelined them into my xorg.conf. Nevertheless i cannot remember getting even 25fps in fullscreen mode with the older drivers. Why it's exactly half the refresh rate i don't know...same for my "1920x1080@60Hz" modeline, which renders at 30fps. Playing a movie switches to the desired refresh rate and stays stable for most of the files, though for some 1080p movies it can't keep up the framerate sometimes.


- beefke - 2009-06-13 13:57

I have a 8200 IGP and everything is working fine in vdpau (with safefull)

However, when I am using vdpau noise reduction, the 8200 seems to run into trouble (stuttering video)

In the log file, I can find "the avcodec_decode_video didn't consume the full packet" when vdpau noise reduction is enabled.

Can somebody confirm this is a hardware limitation of the 8200? Or should I check other things?