[Release] Language Preference Manager

  Thread Rating:
  • 0 Vote(s) - 0 Average
  • 1
  • 2
  • 3
  • 4
  • 5
Post Reply
Crssi Offline
Fan
Posts: 348
Joined: Apr 2013
Reputation: 2
Location: Slovenia
Post: #151
yes
find quote
JoshDi Offline
Junior Member
Posts: 4
Joined: Oct 2014
Reputation: 0
Post: #152
Is there a working version for this addon for 15.0 Isengard – Beta 1?

I am having an issue where all subtitles are playing by default, even though I turned off subtitles in the Audio OSD and set those audio settings as the default for all videos.

I currently have MOVIENAME.en.srt files in each folder (if available) and all MKV files contain English subtitles, but have the forced flag set as False (details are below from one sample file). Unfortunately, I have to turn off subtitles for each movie manually and the "set as default settings for all videos" does not stick.

Anyone else experiencing this issue? any ideas? Thank you very much!

My OP for this issue is listed here: http://forum.kodi.tv/showthread.php?tid=224500


General
Unique ID : 173311344540060142265119544674689107244 (0x82628D02391BC6E29F8A8AE06CE6452C)
Complete name : Z:\Videos\TV\Louie\Season 05\S05E02 - A La Carte.mkv
Format : Matroska
Format version : Version 4 / Version 2
File size : 585 MiB
Duration : 25mn 45s
Overall bit rate : 3 175 Kbps
Encoded date : UTC 2015-04-17 06:57:04
Writing application : mkvmerge v7.3.0 ('Nouages') 64bit built on Oct 22 2014 18:53:34
Writing library : libebml v1.3.0 + libmatroska v1.4.1
_STATISTICS_WRITING_APP : mkvmerge v7.3.0 ('Nouages') 64bit built on Oct 22 2014 18:53:34
_STATISTICS_WRITING_DATE_UT : 2015-04-17 06:57:04
_STATISTICS_TAGS : BPS DURATION NUMBER_OF_FRAMES NUMBER_OF_BYTES
DURATION : 00:25:34.168000000
NUMBER_OF_FRAMES : 588
NUMBER_OF_BYTES : 23052

Video
ID : 1
Format : AVC
Format/Info : Advanced Video Codec
Format profile : High@L4
Format settings, CABAC : Yes
Format settings, ReFrames : 3 frames
Format settings, GOP : M=2, N=25
Codec ID : V_MPEG4/ISO/AVC
Duration : 25mn 45s
Bit rate : 2 862 Kbps
Width : 1 280 pixels
Height : 720 pixels
Display aspect ratio : 16:9
Frame rate mode : Constant
Frame rate : 59.880 fps
Color space : YUV
Chroma subsampling : 4:2:0
Bit depth : 8 bits
Scan type : Progressive
Bits/(Pixel*Frame) : 0.052
Stream size : 526 MiB (90%)
Writing library : x264 core 142 r2479 dd79a61
Encoding settings : cabac=1 / ref=3 / deblock=1:-1:-1 / analyse=0x3:0x133 / me=hex / subme=8 / psy=1 / psy_rd=1.00:0.00 / mixed_ref=1 / me_range=16 / chroma_me=1 / trellis=1 / 8x8dct=1 / cqm=0 / deadzone=21,11 / fast_pskip=0 / chroma_qp_offset=-2 / threads=6 / lookahead_threads=1 / sliced_threads=0 / nr=0 / decimate=0 / interlaced=0 / bluray_compat=0 / constrained_intra=0 / bframes=1 / b_pyramid=0 / b_adapt=0 / b_bias=0 / direct=3 / weightb=1 / open_gop=0 / weightp=2 / keyint=25 / keyint_min=13 / scenecut=40 / intra_refresh=0 / rc_lookahead=25 / rc=abr / mbtree=1 / bitrate=2862 / ratetol=1.0 / qcomp=0.60 / qpmin=0 / qpmax=69 / qpstep=4 / ip_ratio=1.40 / aq=1:1.00
Default : Yes
Forced : No
Color range : Limited
Color primaries : BT.709
Transfer characteristics : BT.709
Matrix coefficients : BT.709

Audio
ID : 2
Format : AC-3
Format/Info : Audio Coding 3
Mode extension : CM (complete main)
Format settings, Endianness : Big
Codec ID : A_AC3
Duration : 25mn 45s
Bit rate mode : Constant
Bit rate : 256 Kbps
Channel(s) : 6 channels
Channel positions : Front: L C R, Side: L R, LFE
Sampling rate : 48.0 KHz
Compression mode : Lossy
Delay relative to video : -5ms
Stream size : 47.2 MiB (8%)
Default : Yes
Forced : No

Text
ID : 3
Format : UTF-8
Codec ID : S_TEXT/UTF8
Codec ID/Info : UTF-8 Plain Text
Default : Yes
Forced : No

Menu
00:00:00.000 : en:Chapter 1
00:01:03.750 : en:Chapter 2
00:12:06.040 : en:Chapter 3
00:15:05.490 : en:Chapter 4
find quote
Post Reply