Kodi Community Forum

Full Version: [XBMCbuntu] Unable to switch audio streams
You're currently viewing a stripped down version of our content. View the full version with proper formatting.
I am unable to change audio streams with Eden. I was able to do so on the same files with Dharma.

I previously hit 'M' to open the menu then selected the little speaker icon and was able to change audio streams no problem, but now that speaker icon is not even there. Am I missing something here? Thanks for any help.

Here is the media info of an example:

General
Complete name : M:\Ali Baba Bunny.avi
Format : AVI
Format/Info : Audio Video Interleave
File size : 77.2 MiB
Duration : 6mn 56s
Overall bit rate : 1 556 Kbps
Writing application : Nandub v1.0rc2
Writing library : Nandub build 1853/release

Video
ID : 0
Format : MPEG-4 Visual
Format profile : Advanced [email protected]
Format settings, BVOP : 1
Format settings, QPel : No
Format settings, GMC : No warppoints
Format settings, Matrix : Default (MPEG)
Codec ID : XVID
Codec ID/Hint : XviD
Duration : 6mn 56s
Bit rate : 1 158 Kbps
Width : 624 pixels
Height : 448 pixels
Display aspect ratio : 1.393
Frame rate : 23.976 fps
Color space : YUV
Chroma subsampling : 4:2:0
Bit depth : 8 bits
Scan type : Progressive
Compression mode : Lossy
Bits/(Pixel*Frame) : 0.173
Stream size : 57.5 MiB (74%)
Writing library : XviD 1.2.0.dev47 (UTC 2006-11-01)

Audio #1
ID : 1
Format : AC-3
Format/Info : Audio Coding 3
Mode extension : CM (complete main)
Format settings, Endianness : Big
Codec ID : 2000
Duration : 6mn 56s
Bit rate mode : Constant
Bit rate : 192 Kbps
Channel(s) : 1 channel
Channel positions : Front: C
Sampling rate : 48.0 KHz
Bit depth : 16 bits
Compression mode : Lossy
Stream size : 9.52 MiB (12%)
Alignment : Split accross interleaves
Interleave, duration : 42 ms (1.00 video frame)
Interleave, preload duration : 500 ms

Audio #2
ID : 2
Format : AC-3
Format/Info : Audio Coding 3
Mode extension : CM (complete main)
Format settings, Endianness : Big
Codec ID : 2000
Duration : 6mn 55s
Bit rate mode : Constant
Bit rate : 192 Kbps
Channel(s) : 2 channels
Channel positions : Front: L R
Sampling rate : 48.0 KHz
Bit depth : 16 bits
Compression mode : Lossy
Stream size : 9.51 MiB (12%)
Alignment : Split accross interleaves
Interleave, duration : 42 ms (1.00 video frame)
Interleave, preload duration : 500 ms

Anyone else having this issue?