Kodi Community Forum
Playback issues - Printable Version

Kodi Community Forum (https://forum.kodi.tv)
+-- Forum: Support (https://forum.kodi.tv/forumdisplay.php?fid=33)
+--- Forum: Video Support (https://forum.kodi.tv/forumdisplay.php?fid=264)
--- Thread: Playback issues (/showthread.php?tid=348363)



Playback issues - thesmackdown - 2019-10-13

Hi all,

I am having trouble playing this video file without doing a re-encode.

Thoughts?
Quote:General
ID                                       : 1 (0x1)
Complete name                            : D:\Downloads\complete\xxxxxxxxxxx\xxxxxxxxxx.Sat.Feed.1080i.H264.English.ts
Format                                   : MPEG-TS
File size                                : 5.24 GiB
Duration                                 : 24 min 55 s
Overall bit rate mode                    : Variable
Overall bit rate                         : 30.1 Mb/s

Video
ID                                       : 32 (0x20)
Menu ID                                  : 3 (0x3)
Format                                   : AVC
Format/Info                              : Advanced Video Codec
Format profile                           : High 4:2:[email protected]
Format settings                          : 4 Ref Frames
Format settings, CABAC                   : No
Format settings, Reference frames        : 4 frames
Codec ID                                 : 27
Duration                                 : 24 min 55 s
Bit rate                                 : 27.8 Mb/s
Width                                    : 1 920 pixels
Height                                   : 1 080 pixels
Display aspect ratio                     : 16:9
Frame rate                               : 25.000 FPS
Color space                              : YUV
Chroma subsampling                       : 4:2:2
Bit depth                                : 8 bits
Scan type                                : Interlaced
Scan type, store method                  : Separated fields
Scan order                               : Top Field First
Bits/(Pixel*Frame)                       : 0.537
Stream size                              : 4.85 GiB (92%)
Color range                              : Limited
Color primaries                          : BT.709
Transfer characteristics                 : BT.709
Matrix coefficients                      : BT.709

Audio #1
ID                                       : 33 (0x21)
Menu ID                                  : 3 (0x3)
Format                                   : MPEG Audio
Format version                           : Version 1
Format profile                           : Layer 2
Codec ID                                 : 3
Duration                                 : 24 min 55 s
Bit rate mode                            : Constant
Bit rate                                 : 384 kb/s
Channel(s)                               : 2 channels
Sampling rate                            : 48.0 kHz
Frame rate                               : 41.667 FPS (1152 SPF)
Compression mode                         : Lossy
Stream size                              : 68.4 MiB (1%)
Language                                 : English

Audio #2
ID                                       : 34 (0x22)
Menu ID                                  : 3 (0x3)
Format                                   : MPEG Audio
Format version                           : Version 1
Format profile                           : Layer 2
Codec ID                                 : 3
Duration                                 : 24 min 55 s
Bit rate mode                            : Constant
Bit rate                                 : 384 kb/s
Channel(s)                               : 2 channels
Sampling rate                            : 48.0 kHz
Frame rate                               : 41.667 FPS (1152 SPF)
Compression mode                         : Lossy
Stream size                              : 68.4 MiB (1%)
Language                                 : English



RE: Playback issues - Klojum - 2019-10-13

(2019-10-13, 17:32)thesmackdown Wrote: Thoughts?

Ehh.. sorry but our colleague, who is clairvoyant, is on holiday currently.

What device are you playing the video on?
What operation system is on that device?
What Kodi version are you running?

And... What are the exact "troubles" when playing your video file?
Finally, include a debug log (wiki) file for a first glance into your Kodi device.