AMLogic hardware video decoding in nightly builds
#95
using a bluetimes mx5 box with nightly xbmc-20140311-b2f1d78-Gotham-armeabi-v7a

i will list files that play well and files that are "Choppy" the way i can describe it is the sound keeps going but the video frame freezes u skip forward it plays for 2 seconds then freezes and stays frozen and audio track keeps going.. some files play amazing others dont

FILES THAT PLAY WITH NO ISSUES



Format : Matroska
Format version : Version 2
File size : 9.38 GiB
Duration : 1h 56mn
Overall bit rate mode : Variable
Overall bit rate : 11.5 Mbps

Encoded date : UTC 2014-02-08 18:21:48
Writing library : libebml v0.7.8 + libmatroska v0.8.1

Video
ID : 1
Format : AVC
Format/Info : Advanced Video Codec
Format profile : [email protected]
Format settings, CABAC : Yes
Format settings, ReFrames : 2 frames
Codec ID : V_MPEG4/ISO/AVC
Duration : 1h 56mn
Width : 1 920 pixels
Height : 800 pixels
Display aspect ratio : 2.40:1
Frame rate mode : Constant
Frame rate : 23.976 fps
Color space : YUV
Chroma subsampling : 4:2:0
Bit depth : 8 bits
Scan type : Progressive
Writing library : x264 core
Default : Yes
Forced : No
Color primaries : BT.709
Transfer characteristics : BT.709
Matrix coefficients : BT.709

Audio
ID : 2
Format : DTS
Format/Info : Digital Theater Systems
Format profile : MA / Core
Mode : 16
Format settings, Endianness : Big
Codec ID : A_DTS
Duration : 1h 56mn
Bit rate mode : Variable
Bit rate : Unknown / 1 509 Kbps
Channel(s) : 6 channels
Channel positions : Front: L C R, Side: L R, LFE
Sampling rate : 48.0 KHz
Bit depth : 24 bits
Compression mode : Lossless / Lossy
Language : English
Default : Yes
Forced : No

eneral
Unique ID : 210427391552618486948607463296278708513 (0x9E4ED76955FEC2E59F648A2370D7C121)
Complete name
Format : Matroska
Format version : Version 2
File size : 3.93 GiB
Duration : 1h 34mn
Overall bit rate : 5 948 Kbps
Encoded date : UTC 2013-06-17 17:01:56
Writing application : mkvmerge v4.8.0 ('I Got The...') built on May 24 2011 03:12:58
Writing library : libebml v1.2.0 + libmatroska v1.1.0

Video
ID : 1
Format : AVC
Format/Info : Advanced Video Codec
Format profile : [email protected]
Format settings, CABAC : Yes
Format settings, ReFrames : 6 frames
Codec ID : V_MPEG4/ISO/AVC
Duration : 1h 34mn
Bit rate : 5 200 Kbps
Width : 1 920 pixels
Height : 816 pixels
Display aspect ratio : 2.35:1
Frame rate mode : Constant
Frame rate : 23.976 fps
Color space : YUV
Chroma subsampling : 4:2:0
Bit depth : 8 bits
Scan type : Progressive
Bits/(Pixel*Frame) : 0.138
Stream size : 3.35 GiB (85%)
Writing library : x264 core 130 r2273 b3065e6
Encoding settings : cabac=1 / ref=6 / deblock=1:-3:-3 / analyse=0x3:0x133 / me=umh / subme=11 / psy=1 / psy_rd=1.00:0.15 / mixed_ref=1 / me_range=128 / chroma_me=1 / trellis=2 / 8x8dct=1 / cqm=0 / deadzone=21,11 / fast_pskip=0 / chroma_qp_offset=-3 / threads=12 / lookahead_threads=2 / sliced_threads=0 / nr=0 / decimate=1 / interlaced=0 / bluray_compat=0 / constrained_intra=0 / bframes=7 / b_pyramid=2 / b_adapt=2 / b_bias=0 / direct=3 / weightb=1 / open_gop=0 / weightp=2 / keyint=240 / keyint_min=24 / scenecut=40 / intra_refresh=0 / rc_lookahead=150 / rc=2pass / mbtree=1 / bitrate=5200 / ratetol=1.0 / qcomp=0.60 / qpmin=0 / qpmax=69 / qpstep=4 / cplxblur=20.0 / qblur=0.5 / vbv_maxrate=12000 / vbv_bufsize=12000 / nal_hrd=none / ip_ratio=1.40 / aq=1:1.00
Language : English
Default : Yes
Forced : No
Color primaries : BT.709
Transfer characteristics : BT.709
Matrix coefficients : BT.709


VIDEOS THAT ARE CHOPPY

General
Unique ID : 224068572199134908602860620860111005515 (0xA892098B253AB897A1D16E2FABDD274B)

Format : Matroska
Format version : Version 4 / Version 2
File size : 3.92 GiB
Duration : 1h 44mn
Overall bit rate : 5 375 Kbps
Encoded date : UTC 2014-03-10 02:59:53
Writing application : mkvmerge v6.7.0 ('Back to the Ground') 64bit built on Jan 8 2014 15:10:52
Writing library : libebml v1.3.0 + libmatroska v1.4.1

Video
ID : 1
Format : AVC
Format/Info : Advanced Video Codec
Format profile : [email protected]
Format settings, CABAC : Yes
Format settings, ReFrames : 4 frames
Codec ID : V_MPEG4/ISO/AVC
Duration : 1h 44mn
Width : 1 916 pixels
Height : 1 072 pixels
Display aspect ratio : 16:9
Frame rate mode : Constant
Frame rate : 23.976 fps
Color space : YUV
Chroma subsampling : 4:2:0
Bit depth : 8 bits
Scan type : Progressive
Language : English
Default : Yes
Forced : No
Color primaries : BT.709
Transfer characteristics : BT.709
Matrix coefficients : BT.709

Audio #1
ID : 2
Format : AC-3
Format/Info : Audio Coding 3
Mode extension : CM (complete main)
Format settings, Endianness : Big
Codec ID : A_AC3
Duration : 1h 44mn
Bit rate mode : Constant
Bit rate : 384 Kbps
Channel(s) : 6 channels
Channel positions : Front: L C R, Side: L R, LFE
Sampling rate : 48.0 KHz
Bit depth : 16 bits
Compression mode : Lossy
Stream size : 287 MiB (7%)
Language : English
Default : Yes
Forced : No

Format : MPEG-4
Format profile : QuickTime
Codec ID : qt
File size : 1.32 GiB
Duration : 31mn 13s
Overall bit rate : 6 053 Kbps
Encoded date : UTC 2014-01-13 18:39:46
Tagged date : UTC 2014-01-13 23:22:34
Writing library : Apple QuickTime
Media/UUID : 29EC759B-B5E2-4DC4-A7F0-47CE4CC0F509

Video
ID : 1
Format : AVC
Format/Info : Advanced Video Codec
Format profile : [email protected]
Format settings, CABAC : No
Format settings, ReFrames : 2 frames
Format settings, GOP : M=2, N=50
Codec ID : avc1
Codec ID/Info : Advanced Video Coding
Duration : 31mn 13s
Bit rate : 5 923 Kbps
Width : 1 888 pixels
Original width : 1 920 pixels
Height : 1 062 pixels
Original height : 1 080 pixels
Display aspect ratio : 16:9
Frame rate mode : Constant
Frame rate : 25.000 fps
Color space : YUV
Chroma subsampling : 4:2:0
Bit depth : 8 bits
Scan type : Progressive
Bits/(Pixel*Frame) : 0.118
Stream size : 1.29 GiB (98%)
Language : English
Encoded date : UTC 2014-01-13 23:20:37
Tagged date : UTC 2014-01-13 23:22:34
Color primaries : BT.709
Transfer characteristics : BT.709
Matrix coefficients : BT.709

Audio
ID : 2
Format : AAC
Format/Info : Advanced Audio Codec
Format profile : LC
Codec ID : 40
Duration : 31mn 13s
Bit rate mode : Constant
Bit rate : 128 Kbps
Channel(s) : 2 channels
Channel positions : Front: L R
Sampling rate : 44.1 KHz
Compression mode : Lossy
Stream size : 28.2 MiB (2%)
Language : English
Encoded date : UTC 2014-01-13 23:20:37
Tagged date : UTC 2014-01-13 23:22:34
Reply


Messages In This Thread
RE: AMLogic hardware video decoding in nightly builds - by epicdsl - 2014-03-14, 10:57


Logout Mark Read Team Forum Stats Members Help
AMLogic hardware video decoding in nightly builds1
This forum uses Lukasz Tkacz MyBB addons.