OpenELEC Testbuilds for RaspberryPi Part 2
Last rbej gotham build: I have problems during playback of this file:
Code:
Format                                   : AVI
Format/Info                              : Audio Video Interleave
File size                                : 400MiB
Duration                                 : 41min
Overall bit rate                         : 1.350 Kbps
Writing application                      : VirtualDubMod 1.5.10.1 (build 2366/release)
Writing library                          : VirtualDubMod build 2366/release

Video
ID                                       : 0
Format                                   : MPEG-4 Visual
Format profile                           : Advanced [email protected]
Format settings, BVOP                    : 2
Format settings, QPel                    : No
Format settings, GMC                     : No warppoints
Format settings, Matrix                  : Personalizzato
Codec ID                                 : XVID
Codec ID/Hint                            : XviD
Duration                                 : 41min
Bit rate                                 : 1.212 Kbps
Width                                    : 624 pixel
Height                                   : 352 pixel
Display aspect ratio                     : 16:9
Frame rate                               : 25,000 fps
Color space                              : YUV
Chroma subsampling                       : 4:2:0
Bit depth                                : 8 bit
Scan type                                : Progressivo
Compression mode                         : Con perdita
Bits/(Pixel*Frame)                       : 0.221
Stream size                              : 359MiB (90%)
Writing library                          : XviD 1.1.2 (UTC 2006-11-01)

Audio
ID                                       : 1
Format                                   : MPEG Audio
Format version                           : Version 1
Format profile                           : Layer 3
Mode                                     : Joint stereo
Mode extension                           : MS Stereo
Codec ID                                 : 55
Codec ID/Hint                            : MP3
Duration                                 : 41min
Bit rate mode                            : Costante
Bit rate                                 : 128 Kbps
Channel(s)                               : 2 canali
Sampling rate                            : 48,0 KHz
Compression mode                         : Con perdita
Stream size                              : 37,9MiB (9%)
Alignment                                : Audio allineato
Interleave, duration                     : 40 ms (1,00 frame)
Interleave, preload duration             : 504 ms

It seems that the issue is with audio. The playback stops continously to recharge buffer...
Any hints?
Thanks


Messages In This Thread
AW: RE: - by DieterLumpen - 2013-07-29, 20:50
include guires switch? - by hpbaxxter - 2013-08-01, 21:46
RE: dual audio?? - by pootler - 2013-08-03, 17:13
Help, watch 3D Film on Non 3D TV - by unix72 - 2013-08-09, 12:39
Remote Controllers - by tfft - 2013-08-14, 09:11
rbej repeatable crash - by RichG - 2013-08-19, 12:43
RE: OpenELEC Testbuilds for RaspberryPi Part 2 - by zoltan - 2013-09-05, 20:16
New Tester - by theneverstill - 2013-10-03, 17:16