Intel VAAPI howto with Leia v18 nightly based on Ubuntu 18.04 server
for info : ffplay version N-74700-g628a73f can open and play the video but not the audio :

Input #0, mpegts, from 'UHD_ENT_Transformer_Quad.ts':
Duration: N/A, start: 1.083411, bitrate: N/A
Program 1
Stream #0:0[0x101]: Video: hevc (Main 10) ([36][0][0][0] / 0x0024), yuv420p10le(tv, bt709), 3840
x2160 [SAR 1:1 DAR 16:9], 23.98 fps, 23.98 tbr, 90k tbn, 23.98 tbc
Stream #0:1[0x102](und): Audio: aac ([15][0][0][0] / 0x000F), 0 channels, fltp
2.52 M-V: -0.039 fd= 5 aq= 0KB vq= 8607KB sq= 0B f=0/0

For me .ts support really doesn't matter, it's only for testing. My videos will be .mp4 and .mkv in the future
Reply


Messages In This Thread
RE: New Era: VAAPI with EGL interoperation - by fab67 - 2015-08-29, 11:15
Live TV broken again? - by schamane - 2016-02-29, 19:56
Random crashes - by hal2100 - 2016-03-08, 22:03