20 Nov 2019 - TVDB Scraper v3.2.0 is now available which reinstates scraping. TVDB are still in the process of fixing a number of bugs so there may still be further breakages. See this post. 2901570 (post)

WeTek Core (24p HD Netflix / HD Audio / Lollipop / OpenELEC / 4K / HEVC)
I tried Core build. I used tar file for update.

This file runs OK with random but rare twitch. Video queue is at 0% 99% of time. A dropped frame here and there.
Code:
General
ID                                       : 1 (0x1)
Complete name                            : 00101.m2ts
CompleteName_Last                        : 00101.m2ts
Format                                   : BDAV
Format/Info                              : Blu-ray Video
File size                                : 35.3 GiB
Duration                                 : 125ms
Overall bit rate mode                    : Variable
Overall bit rate                         : 2 422 Gbps
Maximum Overall bit rate                 : 35.5 Mbps

Video
ID                                       : 4113 (0x1011)
Menu ID                                  : 1 (0x1)
Format                                   : AVC
Format/Info                              : Advanced Video Codec
Format profile                           : [email protected]
Format settings, CABAC                   : Yes
Format settings, ReFrames                : 3 frames
Codec ID                                 : 27
Duration                                 : 209ms
Bit rate mode                            : Variable
Bit rate                                 : 10 000 bps
Maximum bit rate                         : 15.0 Mbps
Width                                    : 1 920 pixels
Height                                   : 1 080 pixels
Display aspect ratio                     : 16:9
Frame rate                               : 23.976 (24000/1001) fps
Color space                              : YUV
Chroma subsampling                       : 4:2:0
Bit depth                                : 8 bits
Scan type                                : MBAFF
Scan type, store method                  : Interleaved fields
Scan order                               : Top Field First
Bits/(Pixel*Frame)                       : 0.000
Stream size                              : 261 Bytes (0%)
Writing library                          : x264 core 67 r1128M 682b54d
Encoding settings                        : cabac=1 / ref=3 / deblock=1:0:0 / analyse=0x3:0x113 / me=hex / subme=5 / psy_rd=0.0:0.0 / mixed_ref=1 / me_range=12 / chroma_me=1 / trellis=0 / 8x8dct=1 / cqm=0 / deadzone=21,11 / chroma_qp_offset=0 / threads=3 / nr=0 / decimate=1 / mbaff=1 / bframes=3 / b_pyramid=0 / b_adapt=1 / b_bias=0 / direct=1 / wpredb=1 / keyint=24 / keyint_min=13 / scenecut=40 / rc=cbr / bitrate=10 / ratetol=1.0 / qcomp=0.50 / qpmin=10 / qpmax=51 / qpstep=4 / vbv_maxrate=15000 / vbv_bufsize=10000 / ip_ratio=1.10 / pb_ratio=1.10 / aq=1:1.00


But these three files are not watchable.
Video queue goes from 96% to 0 stays there for a while, a lot of skipped frames, stuttering, some freezes, A/V sync goes bye bye and never comes back. This then repeats. Queue goes to 90+% drops to 0...

Code:
General
Unique ID                                :
Complete name                            : movie.mkv
Format                                   : Matroska
Format version                           : Version 1
File size                                : 4.38 GiB
Duration                                 : 1h 47mn
Overall bit rate                         : 5 801 Kbps
Encoded date                             : UTC 2007-03-03 08:29:30
Writing application                      : mkvmerge v1.8.1 ('Little By Little') built on Nov 25 2006 16:14:30
Writing library                          : libebml v0.7.7 + libmatroska v0.8.0

Video
ID                                       : 1
Format                                   : AVC
Format/Info                              : Advanced Video Codec
Format profile                           : [email protected]
Format settings, CABAC                   : Yes
Format settings, ReFrames                : 8 frames
Codec ID                                 : V_MPEG4/ISO/AVC
Duration                                 : 1h 47mn
Bit rate                                 : 5 414 Kbps
Width                                    : 1 280 pixels
Height                                   : 720 pixels
Display aspect ratio                     : 16:9
Frame rate mode                          : Constant
Frame rate                               : 23.976 (24000/1001) fps
Color space                              : YUV
Chroma subsampling                       : 4:2:0
Bit depth                                : 8 bits
Scan type                                : Progressive
Bits/(Pixel*Frame)                       : 0.245
Stream size                              : 4.00 GiB (91%)
Writing library                          : x264 core 54 svn-623M
Encoding settings                        : cabac=1 / ref=5 / deblock=1:0:0 / analyse=0x3:0x133 / me=hex / subme=7 / brdo=1 / mixed_ref=1 / me_range=16 / chroma_me=1 / trellis=1 / 8x8dct=1 / cqm=2 / deadzone=21,11 / chroma_qp_offset=0 / threads=2 / nr=0 / decimate=1 / mbaff=0 / bframes=3 / b_pyramid=1 / b_adapt=1 / b_bias=0 / direct=1 / wpredb=1 / bime=1 / keyint=250 / keyint_min=25 / scenecut=40(pre) / rc=2pass / bitrate=5414 / ratetol=1.0 / rceq='blurCplx^(1-qComp)' / qcomp=0.60 / qpmin=10 / qpmax=51 / qpstep=4 / cplxblur=20.0 / qblur=0.5 / ip_ratio=1.40 / pb_ratio=1.30
Language                                 : English
Default                                  : Yes
Forced                                   : No


General
Unique ID                                : movie2.mkv
Format                                   : Matroska
Format version                           : Version 4 / Version 2
File size                                : 10.9 GiB
Duration                                 : 2h 28mn
Overall bit rate                         : 10.6 Mbps
Encoded date                             : UTC 2016-01-16 17:54:26
Writing application                      : mkvmerge v8.3.0 ('Over the Horizon') 64bit
Writing library                          : libebml v1.3.1 + libmatroska v1.4.2

Video
ID                                       : 1
Format                                   : AVC
Format/Info                              : Advanced Video Codec
Format profile                           : [email protected]
Format settings, CABAC                   : Yes
Format settings, ReFrames                : 5 frames
Codec ID                                 : V_MPEG4/ISO/AVC
Duration                                 : 2h 28mn
Bit rate                                 : 9 058 Kbps
Width                                    : 1 920 pixels
Height                                   : 808 pixels
Display aspect ratio                     : 2.40:1
Frame rate mode                          : Constant
Frame rate                               : 23.976 fps
Color space                              : YUV
Chroma subsampling                       : 4:2:0
Bit depth                                : 8 bits
Scan type                                : Progressive
Bits/(Pixel*Frame)                       : 0.244
Stream size                              : 9.36 GiB (86%)
Writing library                          : x264 core 148 r2638 7599210
Encoding settings                        : cabac=1 / ref=5 / deblock=1:0:0 / analyse=0x3:0x133 / me=umh / subme=7 / psy=1 / psy_rd=1.00:0.00 / mixed_ref=1 / me_range=16 / chroma_me=1 / trellis=1 / 8x8dct=1 / cqm=0 / deadzone=21,11 / fast_pskip=0 / chroma_qp_offset=-2 / threads=24 / lookahead_threads=4 / sliced_threads=0 / nr=0 / decimate=1 / interlaced=0 / bluray_compat=0 / constrained_intra=0 / bframes=3 / b_pyramid=2 / b_adapt=1 / b_bias=0 / direct=1 / weightb=1 / open_gop=0 / weightp=2 / keyint=250 / keyint_min=23 / scenecut=40 / intra_refresh=0 / rc_lookahead=40 / rc=2pass / mbtree=1 / bitrate=9058 / ratetol=1.0 / qcomp=0.60 / qpmin=0 / qpmax=69 / qpstep=4 / cplxblur=20.0 / qblur=0.5 / ip_ratio=1.40 / aq=1:1.00
Language                                 : English
Default                                  : Yes
Forced                                   : No


General
Complete name                            : movie3.mp4
Format                                   : MPEG-4
Format profile                           : Base Media / Version 2
Codec ID                                 : mp42 (mp42/isom/avc1)
File size                                : 96.6 MiB
Duration                                 : 6mn 53s
Overall bit rate                         : 1 959 Kbps
Encoded date                             : UTC 2016-04-05 11:02:23
Tagged date                              : UTC 2016-04-05 11:03:37
Writing application                      : DVDFab 9.1.6.6
covr                                     : Unknown kind of value!

Video
ID                                       : 1
Format                                   : AVC
Format/Info                              : Advanced Video Codec
Format profile                           : [email protected]
Format settings, CABAC                   : Yes
Format settings, ReFrames                : 1 frame
Codec ID                                 : avc1
Codec ID/Info                            : Advanced Video Coding
Duration                                 : 6mn 53s
Bit rate                                 : 1 760 Kbps
Width                                    : 720 pixels
Height                                   : 404 pixels
Display aspect ratio                     : 16:9
Frame rate mode                          : Constant
Frame rate                               : 25.000 fps
Color space                              : YUV
Chroma subsampling                       : 4:2:0
Bit depth                                : 8 bits
Scan type                                : Progressive
Bits/(Pixel*Frame)                       : 0.242
Stream size                              : 86.8 MiB (90%)
Writing library                          : x264 core 142
Encoding settings                        : cabac=1 / ref=1 / deblock=1:0:0 / analyse=0x1:0x111 / me=umh / subme=6 / psy=0 / mixed_ref=0 / me_range=12 / chroma_me=1 / trellis=0 / 8x8dct=0 / cqm=0 / deadzone=21,11 / fast_pskip=1 / chroma_qp_offset=0 / threads=4 / lookahead_threads=1 / sliced_threads=0 / nr=0 / decimate=1 / interlaced=0 / bluray_compat=0 / constrained_intra=0 / bframes=0 / weightp=0 / keyint=24 / keyint_min=13 / scenecut=40 / intra_refresh=0 / rc=2pass / mbtree=0 / bitrate=1760 / ratetol=1.0 / qcomp=0.60 / qpmin=0 / qpmax=69 / qpstep=4 / cplxblur=20.0 / qblur=0.5 / ip_ratio=1.40 / aq=1:1.00
Encoded date                             : UTC 2016-04-05 11:02:23
Tagged date                              : UTC 2016-04-05 11:03:36
Color range                              : Limited
Color primaries                          : BT.601 NTSC
Transfer characteristics                 : BT.709
Matrix coefficients                      : BT.601
Menus                                    : 3

I also tested previous build posted by droidelec and it was much better. There was a problem of stuttering when play started but if I restarted it was OK.
Reply
 
Thread Rating:
  • 4 Vote(s) - 4.75 Average


Messages In This Thread
RE: WeTek Core 4K - by wesk05 - 2015-09-15, 08:36
RE: WeTek Core 4K - by Skank - 2015-09-15, 09:59
RE: WeTek Core 4K - by droidelec - 2015-09-18, 18:11
RE: WeTek Core 4K - by movie78 - 2015-09-18, 18:18
RE: WeTek Core 4K - by wesk05 - 2015-09-18, 19:02
RE: WeTek Core 4K - by looun - 2015-09-18, 22:58
RE: WeTek Core 4K - by wesk05 - 2015-09-18, 23:39
RE: WeTek Core 4K - by BORIStheBLADE - 2015-09-19, 00:56
RE: WeTek Core 4K - by SilverBlade - 2015-09-19, 02:43
RE: WeTek Core 4K - by noggin - 2015-09-19, 11:13
RE: WeTek Core 4K - by wesk05 - 2015-09-19, 20:13
RE: WeTek Core 4K - by movie78 - 2015-09-19, 23:21
RE: WeTek Core 4K - by wrxtasy - 2015-10-05, 06:48
RE: WeTek Core 4K - by tomvs123 - 2015-10-09, 23:15
RE: WeTek Core 4K - by wrxtasy - 2015-10-10, 02:55
RE: WeTek Core 4K - by tomvs123 - 2015-10-10, 04:19
RE: WeTek Core 4K - by noggin - 2015-10-10, 10:15
RE: WeTek Core 4K - by wrxtasy - 2015-10-13, 11:27
RE: WeTek Core 4K - by couto27 - 2015-10-13, 12:40
RE: WeTek Core 4K - by wrxtasy - 2015-10-13, 14:33
WeTek Core 4K - by tredman - 2015-10-13, 13:57
RE: WeTek Core 4K - by hdmkv - 2015-10-13, 14:02
RE: WeTek Core 4K - by tomvs123 - 2015-10-13, 14:04
RE: WeTek Core 4K - by wrxtasy - 2015-10-13, 15:20
RE: WeTek Core 4K - by hdmkv - 2015-10-13, 15:54
RE: WeTek Core 4K - by wrxtasy - 2015-10-13, 17:00
RE: WeTek Core 4K - by gredawarha - 2015-10-13, 15:06
RE: WeTek Core 4K - by wrxtasy - 2015-10-13, 15:57
RE: WeTek Core 4K - by vineet381 - 2015-10-13, 15:23
RE: WeTek Core 4K - by tredman - 2015-10-13, 15:27
RE: WeTek Core 4K - by gredawarha - 2015-10-13, 15:29
RE: WeTek Core 4K - by vineet381 - 2015-10-13, 15:44
RE: WeTek Core 4K - by gredawarha - 2015-10-13, 16:53
RE: WeTek Core 4K - by Atinkler - 2015-10-13, 17:04
RE: WeTek Core 4K - by wrxtasy - 2015-10-13, 17:38
RE: WeTek Core 4K - by hdmkv - 2015-10-13, 17:06
RE: WeTek Core 4K - by zag - 2015-10-13, 17:06
RE: WeTek Core 4K - by hdmkv - 2015-10-13, 17:10
RE: WeTek Core 4K - by Atinkler - 2015-10-13, 17:43
RE: WeTek Core 4K - by wrxtasy - 2015-10-13, 17:56
RE: WeTek Core 4K - by Atinkler - 2015-10-13, 18:06
RE: WeTek Core 4K - by hdmkv - 2015-10-13, 17:44
RE: WeTek Core 4K - by droidelec - 2015-10-13, 17:50
RE: WeTek Core 4K - by wrxtasy - 2015-10-15, 05:56
RE: WeTek Core 4K - by mwake - 2015-11-25, 14:56
RE: WeTek Core (24p HD Netflix / HD Audio / Lollipop / OpenELEC / 4K / HEVC) - by skodilak - 2016-05-19, 21:51


Logout Mark Read Team Forum Stats Members Help
WeTek Core (24p HD Netflix / HD Audio / Lollipop / OpenELEC / 4K / HEVC)4.754