START HERE - Pick the Right Kodi Box (updated January 2020)
They were torture test files from @wesk05....

Code:
General
Complete name                            : Y:\AV Test Clips\Golden Gate 1080p yuv422.mp4
Format                                   : hvc1
Codec ID                                 : hvc1 (iso4/hvc1)
File size                                : 79.3 MiB
Duration                                 : 34s 0ms
Overall bit rate                         : 19.6 Mbps
Encoded date                             : UTC 2016-07-19 09:44:19
Tagged date                              : UTC 2016-07-19 09:44:19
Writing application                      : Hybrid 2016.07.16.1

Video
ID                                       : 1
Format                                   : HEVC
Format/Info                              : High Efficiency Video Coding
Format profile                           : @[email protected]
Codec ID                                 : hvc1
Codec ID/Info                            : High Efficiency Video Coding
Duration                                 : 34s 0ms
Bit rate                                 : 19.6 Mbps
Maximum bit rate                         : 22.9 Mbps
Width                                    : 1 920 pixels
Height                                   : 1 080 pixels
Display aspect ratio                     : 16:9
Frame rate mode                          : Constant
Frame rate                               : 24.000 fps
Color space                              : YUV
Chroma subsampling                       : 4:2:2
Bit depth                                : 12 bits
Bits/(Pixel*Frame)                       : 0.393
Stream size                              : 79.3 MiB (100%)
Writing library                          : x265 2.0+4-43ca544799c2:[Windows][GCC 5.4.0][64 bit] 12bit
Encoding settings                        : wpp / ctu=64 / min-cu-size=8 / max-tu-size=32 / tu-intra-depth=1 / tu-inter-depth=1 / me=1 / subme=2 / merange=57 / no-rect / no-amp / max-merge=2 / temporal-mvp / no-early-skip / rskip / rdpenalty=0 / no-tskip / no-tskip-fast / strong-intra-smoothing / no-lossless / cu-lossless / no-constrained-intra / no-fast-intra / no-open-gop / no-temporal-layers / interlace=0 / keyint=250 / min-keyint=24 / scenecut=40 / rc-lookahead=20 / lookahead-slices=0 / bframes=4 / bframe-bias=0 / b-adapt=2 / ref=3 / limit-refs=3 / limit-modes / weightp / no-weightb / aq-mode=2 / qg-size=32 / aq-strength=1.00 / cbqpoffs=-2 / crqpoffs=-2 / rd=3 / psy-rd=2.50 / rdoq-level=2 / psy-rdoq=15.00 / no-rd-refine / signhide / deblock=0:0 / sao / no-sao-non-deblock / b-pyramid / cutree / no-intra-refresh / rc=crf / crf=17.0 / qcomp=0.60 / qpmin=0 / qpmax=51 / qpstep=4 / vbv-maxrate=60000 / vbv-bufsize=60000 / crf-max=0.0 / ipratio=1.40 / pbratio=1.30
Encoded date                             : UTC 2016-07-19 09:44:19
Tagged date                              : UTC 2016-07-19 09:44:19
Color range                              : Limited
Matrix coefficients                      : BT.709

Code:
General
Complete name                            : Y:\AV Test Clips\Golden Gate 1080p yuv444.mp4
Format                                   : hvc1
Codec ID                                 : hvc1 (iso4/hvc1)
File size                                : 58.3 MiB
Duration                                 : 34s 0ms
Overall bit rate                         : 14.4 Mbps
Encoded date                             : UTC 2016-07-19 09:28:12
Tagged date                              : UTC 2016-07-19 09:28:12
Writing application                      : Hybrid 2016.07.16.1

Video
ID                                       : 1
Format                                   : HEVC
Format/Info                              : High Efficiency Video Coding
Format profile                           : @[email protected]
Codec ID                                 : hvc1
Codec ID/Info                            : High Efficiency Video Coding
Duration                                 : 34s 0ms
Bit rate                                 : 14.4 Mbps
Maximum bit rate                         : 18.0 Mbps
Width                                    : 1 920 pixels
Height                                   : 1 080 pixels
Display aspect ratio                     : 16:9
Frame rate mode                          : Constant
Frame rate                               : 24.000 fps
Color space                              : YUV
Chroma subsampling                       : 4:4:4
Bit depth                                : 10 bits
Bits/(Pixel*Frame)                       : 0.289
Stream size                              : 58.3 MiB (100%)
Writing library                          : x265 2.0+4-43ca544799c2:[Windows][GCC 5.4.0][64 bit] 10bit
Encoding settings                        : wpp / ctu=64 / min-cu-size=8 / max-tu-size=32 / tu-intra-depth=1 / tu-inter-depth=1 / me=1 / subme=2 / merange=57 / no-rect / no-amp / max-merge=2 / temporal-mvp / no-early-skip / rskip / rdpenalty=0 / no-tskip / no-tskip-fast / strong-intra-smoothing / no-lossless / cu-lossless / no-constrained-intra / no-fast-intra / no-open-gop / no-temporal-layers / interlace=0 / keyint=250 / min-keyint=24 / scenecut=40 / rc-lookahead=20 / lookahead-slices=0 / bframes=4 / bframe-bias=0 / b-adapt=2 / ref=3 / limit-refs=3 / limit-modes / weightp / no-weightb / aq-mode=2 / qg-size=32 / aq-strength=1.00 / cbqpoffs=4 / crqpoffs=4 / rd=3 / psy-rd=2.50 / rdoq-level=2 / psy-rdoq=15.00 / no-rd-refine / signhide / deblock=0:0 / sao / no-sao-non-deblock / b-pyramid / cutree / no-intra-refresh / rc=crf / crf=17.0 / qcomp=0.60 / qpmin=0 / qpmax=51 / qpstep=4 / vbv-maxrate=60000 / vbv-bufsize=60000 / crf-max=0.0 / ipratio=1.40 / pbratio=1.30
Encoded date                             : UTC 2016-07-19 09:28:12
Tagged date                              : UTC 2016-07-19 09:28:13
Color range                              : Limited
Matrix coefficients                      : BT.709

Code:
General
Complete name                            : Y:\AV Test Clips\Golden Gate 2160p yuv422.mp4
Format                                   : hvc1
Codec ID                                 : hvc1 (iso4/hvc1)
File size                                : 246 MiB
Duration                                 : 34s 0ms
Overall bit rate                         : 60.6 Mbps
Encoded date                             : UTC 2016-07-19 08:54:01
Tagged date                              : UTC 2016-07-19 08:54:01
Writing application                      : Hybrid 2016.07.16.1

Video
ID                                       : 1
Format                                   : HEVC
Format/Info                              : High Efficiency Video Coding
Format profile                           : @[email protected]
Codec ID                                 : hvc1
Codec ID/Info                            : High Efficiency Video Coding
Duration                                 : 34s 0ms
Bit rate                                 : 60.6 Mbps
Maximum bit rate                         : 80.3 Mbps
Width                                    : 3 840 pixels
Height                                   : 2 160 pixels
Display aspect ratio                     : 16:9
Frame rate mode                          : Constant
Frame rate                               : 24.000 fps
Color space                              : YUV
Chroma subsampling                       : 4:2:2
Bit depth                                : 12 bits
Bits/(Pixel*Frame)                       : 0.304
Stream size                              : 246 MiB (100%)
Writing library                          : x265 2.0+4-43ca544799c2:[Windows][GCC 5.4.0][64 bit] 12bit
Encoding settings                        : wpp / ctu=64 / min-cu-size=8 / max-tu-size=32 / tu-intra-depth=1 / tu-inter-depth=1 / me=1 / subme=2 / merange=57 / no-rect / no-amp / max-merge=2 / temporal-mvp / no-early-skip / rskip / rdpenalty=0 / no-tskip / no-tskip-fast / strong-intra-smoothing / no-lossless / cu-lossless / no-constrained-intra / no-fast-intra / no-open-gop / no-temporal-layers / interlace=0 / keyint=250 / min-keyint=24 / scenecut=40 / rc-lookahead=20 / lookahead-slices=0 / bframes=4 / bframe-bias=0 / b-adapt=2 / ref=3 / limit-refs=3 / limit-modes / weightp / no-weightb / aq-mode=2 / qg-size=32 / aq-strength=1.00 / cbqpoffs=-2 / crqpoffs=-2 / rd=3 / psy-rd=2.50 / rdoq-level=2 / psy-rdoq=15.00 / no-rd-refine / signhide / deblock=0:0 / sao / no-sao-non-deblock / b-pyramid / cutree / no-intra-refresh / rc=crf / crf=17.0 / qcomp=0.60 / qpmin=0 / qpmax=51 / qpstep=4 / vbv-maxrate=60000 / vbv-bufsize=60000 / crf-max=0.0 / ipratio=1.40 / pbratio=1.30
Encoded date                             : UTC 2016-07-19 08:54:01
Tagged date                              : UTC 2016-07-19 08:54:02
Color range                              : Limited
Matrix coefficients                      : BT.709

Code:
General
Complete name                            : Y:\AV Test Clips\Golden Gate 2160p yuv444.mp4
Format                                   : hvc1
Codec ID                                 : hvc1 (iso4/hvc1)
File size                                : 242 MiB
Duration                                 : 34s 0ms
Overall bit rate                         : 59.7 Mbps
Encoded date                             : UTC 2016-07-19 08:05:41
Tagged date                              : UTC 2016-07-19 08:05:41
Writing application                      : Hybrid 2016.07.16.1

Video
ID                                       : 1
Format                                   : HEVC
Format/Info                              : High Efficiency Video Coding
Format profile                           : @[email protected]
Codec ID                                 : hvc1
Codec ID/Info                            : High Efficiency Video Coding
Duration                                 : 34s 0ms
Bit rate                                 : 59.7 Mbps
Maximum bit rate                         : 74.0 Mbps
Width                                    : 3 840 pixels
Height                                   : 2 160 pixels
Display aspect ratio                     : 16:9
Frame rate mode                          : Constant
Frame rate                               : 24.000 fps
Color space                              : YUV
Chroma subsampling                       : 4:4:4
Bit depth                                : 10 bits
Bits/(Pixel*Frame)                       : 0.300
Stream size                              : 242 MiB (100%)
Writing library                          : x265 2.0+4-43ca544799c2:[Windows][GCC 5.4.0][64 bit] 10bit
Encoding settings                        : wpp / ctu=64 / min-cu-size=8 / max-tu-size=32 / tu-intra-depth=1 / tu-inter-depth=1 / me=1 / subme=2 / merange=57 / no-rect / no-amp / max-merge=2 / temporal-mvp / no-early-skip / rskip / rdpenalty=0 / no-tskip / no-tskip-fast / strong-intra-smoothing / no-lossless / cu-lossless / no-constrained-intra / no-fast-intra / no-open-gop / no-temporal-layers / interlace=0 / keyint=250 / min-keyint=24 / scenecut=40 / rc-lookahead=20 / lookahead-slices=0 / bframes=4 / bframe-bias=0 / b-adapt=2 / ref=3 / limit-refs=3 / limit-modes / weightp / no-weightb / aq-mode=2 / qg-size=32 / aq-strength=1.00 / cbqpoffs=4 / crqpoffs=4 / rd=3 / psy-rd=2.50 / rdoq-level=2 / psy-rdoq=15.00 / no-rd-refine / signhide / deblock=0:0 / sao / no-sao-non-deblock / b-pyramid / cutree / no-intra-refresh / rc=crf / crf=17.0 / qcomp=0.60 / qpmin=0 / qpmax=51 / qpstep=4 / vbv-maxrate=60000 / vbv-bufsize=60000 / crf-max=0.0 / ipratio=1.40 / pbratio=1.30
Encoded date                             : UTC 2016-07-19 08:05:41
Tagged date                              : UTC 2016-07-19 08:05:43
Color range                              : Limited
Matrix coefficients                      : BT.709

Let me see if I can make a video today with some of the 4K playback differences between Shield and HiMedia.
Edit: I was wrong about above playing properly w/HiMedia; see below
[H]i-[d]eft [M]edia [K]een [V]ideosaurus
My Family Room Theater
Reply
 
Thread Rating:
  • 28 Vote(s) - 4.25 Average


Messages In This Thread
The right box for me - by tyem - 2016-01-13, 15:29
Jesus Box - by kellyvb - 2016-03-04, 20:18
RE: START HERE - Pick the Right Kodi Box (updated July 2016) - by hdmkv - 2016-08-26, 14:36
Thanks for the Help! - by jmc15john - 2016-11-09, 16:44
Jarvis crashes and wipes - by gotthis2000 - 2017-01-10, 22:14
RE: Jarvis crashes and wipes - by nickr - 2017-01-10, 22:58
T95Z Plus Android TV Box - by gooner1971 - 2017-03-17, 13:04