Thread Closed
v17 LibreELEC Testbuilds for x86_64 (Kodi 17.0)
Milhouse:

With #719 I am still getting horrible frame skipping and had to revert back to #716 where it is stable. I experienced this in #717, #718, and #719 and here are the kodi logs playing the same file exactly:

http://sprunge.us/KiZY - Kodi.log #719
http://sprunge.us/DAUT - Kodi.log #716

I've also had some video showing what the experience is like:

https://www.dropbox.com/s/fy4fccuwgksqiv...M.mov?dl=0 - playback #719, notice the skipped frames incrementing and also you can see the lag/stutter
https://www.dropbox.com/s/fbvr8j2x9ahq0s...M.mov?dl=0 - playback #716, initial skipped are due to refresh change but after that its completely smooth in playback.

Here is the mediainfo details as well:

Code:
General
Unique ID                                : 244765540339025494194741046271728972772 (0xB82420DB8003E9D6CE92D7BDD01073E4)
Complete name                            : Vice.Principals.S01E01.720p.HDTV.x264.mkv
Format                                   : Matroska
Format version                           : Version 4 / Version 2
File size                                : 630 MiB
Duration                                 : 30mn 19s
Overall bit rate                         : 2 904 Kbps
Encoded date                             : UTC 2016-07-18 03:06:32
Writing application                      : mkvmerge v9.0.1 ('Obstacles') 64bit
Writing library                          : libebml v1.3.3 + libmatroska v1.4.4

Video
ID                                       : 1
Format                                   : AVC
Format/Info                              : Advanced Video Codec
Format profile                           : [email protected]
Format settings, CABAC                   : Yes
Format settings, ReFrames                : 5 frames
Codec ID                                 : V_MPEG4/ISO/AVC
Duration                                 : 30mn 19s
Bit rate                                 : 2 462 Kbps
Width                                    : 1 280 pixels
Height                                   : 716 pixels
Display aspect ratio                     : 16:9
Frame rate mode                          : Constant
Frame rate                               : 23.976 (24000/1001) fps
Color space                              : YUV
Chroma subsampling                       : 4:2:0
Bit depth                                : 8 bits
Scan type                                : Progressive
Bits/(Pixel*Frame)                       : 0.112
Stream size                              : 534 MiB (85%)
Writing library                          : x264 core 148 r2705 3f5ed56
Encoding settings                        : cabac=1 / ref=5 / deblock=1:0:0 / analyse=0x3:0x113 / me=umh / subme=8 / psy=1 / psy_rd=1.00:0.00 / mixed_ref=1 / me_range=16 / chroma_me=1 / trellis=1 / 8x8dct=1 / cqm=0 / deadzone=21,11 / fast_pskip=1 / chroma_qp_offset=-2 / threads=22 / lookahead_threads=3 / sliced_threads=0 / nr=0 / decimate=1 / interlaced=0 / bluray_compat=0 / constrained_intra=0 / bframes=3 / b_pyramid=2 / b_adapt=2 / b_bias=0 / direct=3 / weightb=1 / open_gop=0 / weightp=2 / keyint=250 / keyint_min=23 / scenecut=40 / intra_refresh=0 / rc_lookahead=50 / rc=crf / mbtree=1 / crf=18.0 / qcomp=0.60 / qpmin=0 / qpmax=69 / qpstep=4 / ip_ratio=1.40 / aq=1:1.00
Default                                  : Yes
Forced                                   : No
Color range                              : Limited
Matrix coefficients                      : BT.709

Audio
ID                                       : 2
Format                                   : AC-3
Format/Info                              : Audio Coding 3
Mode extension                           : CM (complete main)
Format settings, Endianness              : Big
Codec ID                                 : A_AC3
Duration                                 : 30mn 19s
Bit rate mode                            : Constant
Bit rate                                 : 384 Kbps
Channel(s)                               : 6 channels
Channel positions                        : Front: L C R, Side: L R, LFE
Sampling rate                            : 48.0 KHz
Frame rate                               : 31.250 fps (1536 spf)
Compression mode                         : Lossy
Stream size                              : 83.3 MiB (13%)
Default                                  : Yes
Forced                                   : No

Let me know if you need anything else and thanks!
HTPC(s): All running LibreELEC
  • AMD 2200G APU on Gigabyte AB350N-Gaming WIFI-CF
  • RPI3 x2 | RPI2 x2
NAS: FreeNAS (Latest Stable) | NFS/CIFS
  Thread Closed
 
Thread Rating:
  • 11 Vote(s) - 3.91 Average


Messages In This Thread
3D HOU/HSBS issue - by .bismarck - 2016-06-20, 20:03
RE: LibreELEC Testbuilds for x86 (Kodi 17.0) - by pyrodex - 2016-07-20, 02:04
[Build #0903] breaks VAAPI - by MichaelAnders - 2016-09-04, 15:37
Update Failed - by n2vwz - 2016-09-27, 19:34


Logout Mark Read Team Forum Stats Members Help
LibreELEC Testbuilds for x86_64 (Kodi 17.0)3.9111