Playback-problem with ogg-files
#1
Hey,
some ogg-files don't play with the pa-player. However, when i select dvdplayer for playback, the track starts. This appears only with some files, others play well with the standard-player.
Here's the log:
Code:
12:38:05 76796.812500 T:1278211056   DEBUG: Thread JobWorker 1278211056 terminating (autodelete)
12:38:05 76796.898438 T:1290793968   DEBUG: Thread JobWorker 1290793968 terminating (autodelete)
12:38:08 76799.710938 T:1853764592   DEBUG: PushCecKeypress - received key  b duration 0 (rep:0 size:0)
12:38:08 76799.710938 T:1853764592   DEBUG: PushCecKeypress - added key  b
12:38:08 76799.742188 T:1956393904   DEBUG: OnKey: 11 (0x0b) pressed, action is Select
12:38:08 76799.750000 T:1956393904   DEBUG: SELECT albumview.*,albumartistview.*   FROM albumview   LEFT JOIN albumartistview ON albumview.idAlbum = albumartistview.idAlbum   WHERE albumview.idAlbum = 1689   ORDER BY albumartistview.iOrder
12:38:08 76799.781250 T:1956393904   DEBUG: CAnnouncementManager - Announcement: OnClear from xbmc
12:38:08 76799.781250 T:1956393904   DEBUG: GOT ANNOUNCEMENT, type: 2, from xbmc, message OnClear
12:38:08 76799.789062 T:1956393904   DEBUG: CAnnouncementManager - Announcement: OnAdd from xbmc
12:38:08 76799.789062 T:1956393904   DEBUG: GOT ANNOUNCEMENT, type: 2, from xbmc, message OnAdd
12:38:08 76799.789062 T:1956393904   DEBUG: CAnnouncementManager - Announcement: OnAdd from xbmc
12:38:08 76799.789062 T:1956393904   DEBUG: GOT ANNOUNCEMENT, type: 2, from xbmc, message OnAdd
12:38:08 76799.789062 T:1956393904   DEBUG: CAnnouncementManager - Announcement: OnAdd from xbmc
12:38:08 76799.789062 T:1956393904   DEBUG: GOT ANNOUNCEMENT, type: 2, from xbmc, message OnAdd
12:38:08 76799.789062 T:1956393904   DEBUG: CAnnouncementManager - Announcement: OnAdd from xbmc
12:38:08 76799.789062 T:1956393904   DEBUG: GOT ANNOUNCEMENT, type: 2, from xbmc, message OnAdd
12:38:08 76799.789062 T:1956393904   DEBUG: CAnnouncementManager - Announcement: OnAdd from xbmc
12:38:08 76799.789062 T:1956393904   DEBUG: GOT ANNOUNCEMENT, type: 2, from xbmc, message OnAdd
12:38:08 76799.789062 T:1956393904   DEBUG: CAnnouncementManager - Announcement: OnAdd from xbmc
12:38:08 76799.789062 T:1956393904   DEBUG: GOT ANNOUNCEMENT, type: 2, from xbmc, message OnAdd
12:38:08 76799.789062 T:1956393904   DEBUG: CAnnouncementManager - Announcement: OnAdd from xbmc
12:38:08 76799.789062 T:1956393904   DEBUG: GOT ANNOUNCEMENT, type: 2, from xbmc, message OnAdd
12:38:08 76799.789062 T:1956393904   DEBUG: CAnnouncementManager - Announcement: OnAdd from xbmc
12:38:08 76799.789062 T:1956393904   DEBUG: GOT ANNOUNCEMENT, type: 2, from xbmc, message OnAdd
12:38:08 76799.789062 T:1956393904   DEBUG: CAnnouncementManager - Announcement: OnAdd from xbmc
12:38:08 76799.796875 T:1956393904   DEBUG: GOT ANNOUNCEMENT, type: 2, from xbmc, message OnAdd
12:38:08 76799.796875 T:1956393904   DEBUG: CAnnouncementManager - Announcement: OnAdd from xbmc
12:38:08 76799.796875 T:1956393904   DEBUG: GOT ANNOUNCEMENT, type: 2, from xbmc, message OnAdd
12:38:08 76799.796875 T:1956393904   DEBUG: CAnnouncementManager - Announcement: OnAdd from xbmc
12:38:08 76799.796875 T:1956393904   DEBUG: GOT ANNOUNCEMENT, type: 2, from xbmc, message OnAdd
12:38:08 76799.796875 T:1956393904   DEBUG: CAnnouncementManager - Announcement: OnAdd from xbmc
12:38:08 76799.796875 T:1956393904   DEBUG: GOT ANNOUNCEMENT, type: 2, from xbmc, message OnAdd
12:38:08 76799.796875 T:1956393904   DEBUG: DoWork - Saving file state for audio item musicdb://recentlyplayedalbums/1689/11736.ogg?albumid=1689
12:38:08 76799.812500 T:1956393904   DEBUG: Loading settings for musicdb://recentlyplayedalbums/1689/11735.ogg?albumid=1689
12:38:08 76799.898438 T:1946153968   DEBUG: CActiveAE::DiscardStream - audio stream deleted
12:38:08 76799.898438 T:1946153968   DEBUG: CActiveAE::ClearDiscardedBuffers - buffer pool deleted
12:38:08 76799.898438 T:1299182576   DEBUG: OnPlayBackStopped: play state was 2, starting 1
12:38:08 76799.898438 T:1299182576   DEBUG: Thread PAPlayer 1299182576 terminating
12:38:08 76799.976562 T:1946153968   DEBUG: CActiveAE::ClearDiscardedBuffers - buffer pool deleted
12:38:08 76800.062500 T:1853764592   DEBUG: PushCecKeypress - received key  b duration 349 (rep:0 size:0)
12:38:08 76800.062500 T:1853764592   DEBUG: PushCecKeypress - ignored key  b
12:38:08 76800.062500 T:1956393904   DEBUG: Open - probing detected format [ogg]
12:38:08 76800.070312 T:1956393904   DEBUG: Open - avformat_find_stream_info starting
12:38:08 76800.078125 T:1956393904   DEBUG: Open - av_find_stream_info finished
12:38:08 76800.078125 T:1956393904    INFO: ffmpeg[749C33B0]: Input #0, ogg, musicdb://recentlyplayedalbums/1689/11735.ogg?albumid=168':
12:38:08 76800.078125 T:1956393904    INFO: ffmpeg[749C33B0]:   Duration: 00:06:17.69, start: 0.000000, bitrate: 164 kb/s
12:38:08 76800.078125 T:1956393904    INFO: ffmpeg[749C33B0]:     Stream #0:0: Audio: vorbis, 44100 Hz, stereo, fltp, 160 kb/s
12:38:08 76800.078125 T:1956393904    INFO: ffmpeg[749C33B0]:     Metadata:
12:38:08 76800.078125 T:1956393904    INFO: ffmpeg[749C33B0]:       ALBUM           : Blue Break Beats Volume 1 (1964-73)
12:38:08 76800.078125 T:1956393904    INFO: ffmpeg[749C33B0]:       DATE            : 1992
12:38:08 76800.078125 T:1956393904    INFO: ffmpeg[749C33B0]:       GENRE           : Jazz
12:38:08 76800.078125 T:1956393904    INFO: ffmpeg[749C33B0]:       DISCID          : 9c127e0c
12:38:08 76800.078125 T:1956393904    INFO: ffmpeg[749C33B0]:       ARTIST          : Donald Byrd
12:38:08 76800.078125 T:1956393904    INFO: ffmpeg[749C33B0]:       ALBUM ARTIST    : Various
12:38:08 76800.078125 T:1956393904    INFO: ffmpeg[749C33B0]:       TITLE           : Blackjack
12:38:08 76800.078125 T:1956393904    INFO: ffmpeg[749C33B0]:       track           : 11
12:38:08 76800.078125 T:1956393904    INFO: ffmpeg[749C33B0]:       TRACKTOTAL      : 12
12:38:08 76800.078125 T:1956393904   DEBUG: CDVDDemuxFFmpeg::AddStream(0, ...) -> 0
12:38:08 76800.078125 T:1956393904   DEBUG: FactoryCodec - Audio: passthrough - Opening
12:38:08 76800.078125 T:1956393904   DEBUG: FactoryCodec - Audio: passthrough - Failed
12:38:08 76800.078125 T:1956393904   DEBUG: FactoryCodec - Audio: FFmpeg - Opening
12:38:08 76800.085938 T:1956393904   DEBUG: FactoryCodec - Audio: FFmpeg - Opened
12:38:08 76800.226562 T:1956393904   DEBUG: unrecognized XipComment name: DISCID
12:38:08 76800.226562 T:1956393904   DEBUG: unrecognized XipComment name: TRACKTOTAL
12:38:08 76800.234375 T:1956393904   DEBUG: SeekTime - seek ended up on time 0
12:38:08 76800.359375 T:1956393904   DEBUG: Previous line repeats 2 times.
12:38:08 76800.359375 T:1956393904    INFO: AudioDecoder: File is queued
12:38:08 76800.359375 T:1956393904   DEBUG: AudioDecoder::GetReplayGain - Final Replaygain applied: 1.000000, Track/Album Gain 89.000000, Peak 0.000000
12:38:08 76800.453125 T:1956393904    INFO: PAPlayer::PrepareStream - Ready
12:38:08 76800.453125 T:1956393904   DEBUG: PlayFile: OpenFile succeed, play state 1
12:38:08 76800.453125 T:1299182576   DEBUG: Thread PAPlayer start, auto delete: false
12:38:08 76800.453125 T:1299182576   DEBUG: PAPlayer::Process - Playback started
12:38:08 76800.453125 T:1299182576   DEBUG: OnPlayBackStarted: play state was 1, starting 0
12:38:08 76800.453125 T:1299182576    INFO: PAPlayer::ProcessStream - Stream Finished
12:38:08 76800.453125 T:1299182576   DEBUG: OnQueueNextItem: play state was 2, starting 0
12:38:08 76800.476562 T:1956393904   DEBUG: CGUIInfoManager::SetCurrentSong(musicdb://recentlyplayedalbums/1689/11735.ogg?albumid=1689)
12:38:08 76800.500000 T:1956393904   DEBUG: SELECT albumview.*,albumartistview.*   FROM albumview   LEFT JOIN albumartistview ON albumview.idAlbum = albumartistview.idAlbum   WHERE albumview.idAlbum = 1689   ORDER BY albumartistview.iOrder
12:38:08 76800.539062 T:1299182576   DEBUG: PAPlayer::ProcessStreams - Stream Freed
12:38:08 76800.539062 T:1946153968   DEBUG: CActiveAE::DiscardStream - audio stream deleted
12:38:08 76800.539062 T:1946153968   DEBUG: CActiveAE::ClearDiscardedBuffers - buffer pool deleted
12:38:08 76800.539062 T:1956393904   DEBUG: Loading additional tag info for file /media/6562bc91-d77c-3353-a287-09a746a45bb2/Musik/Various (1992) Blue Break Beats Volume 1 (1964-73)/11 - Donald Byrd - Blackjack.ogg
12:38:08 76800.539062 T:1956393904   DEBUG: unrecognized XipComment name: DISCID
12:38:08 76800.539062 T:1956393904   DEBUG: unrecognized XipComment name: TRACKTOTAL
12:38:08 76800.539062 T:1956393904   DEBUG: CAnnouncementManager - Announcement: OnPlay from xbmc
12:38:08 76800.546875 T:1956393904   DEBUG: GOT ANNOUNCEMENT, type: 1, from xbmc, message OnPlay
12:38:08 76800.546875 T:1956393904   DEBUG: UPnP: Building didl for object 'musicdb://recentlyplayedalbums/1689/11735.ogg?albumid=1689'
12:38:09 76800.546875 T:1290793968   DEBUG: Thread JobWorker start, auto delete: true
12:38:09 76800.554688 T:1278211056   DEBUG: Previous line repeats 1 times.
12:38:09 76800.554688 T:1278211056   DEBUG: DoWork - Saving file state for audio item musicdb://recentlyplayedalbums/1689/11736.ogg?albumid=1689
12:38:09 76800.695312 T:1946153968   DEBUG: CActiveAE::ClearDiscardedBuffers - buffer pool deleted
12:38:09 76800.710938 T:1290793968   DEBUG: Open - probing detected format [ogg]
12:38:09 76800.718750 T:1290793968   DEBUG: Open - avformat_find_stream_info starting
12:38:09 76800.726562 T:1290793968   DEBUG: Open - av_find_stream_info finished
12:38:09 76800.726562 T:1290793968    INFO: ffmpeg[4CEFF3F0]: Input #0, ogg, musicdb://recentlyplayedalbums/1689/11736.ogg?albumid=168':
12:38:09 76800.726562 T:1290793968    INFO: ffmpeg[4CEFF3F0]:   Duration: 00:08:27.80, start: 0.000000, bitrate: 143 kb/s
12:38:09 76800.726562 T:1290793968    INFO: ffmpeg[4CEFF3F0]:     Stream #0:0: Audio: vorbis, 44100 Hz, stereo, fltp, 160 kb/s
12:38:09 76800.726562 T:1290793968    INFO: ffmpeg[4CEFF3F0]:     Metadata:
12:38:09 76800.726562 T:1290793968    INFO: ffmpeg[4CEFF3F0]:       ALBUM           : Blue Break Beats Volume 1 (1964-73)
12:38:09 76800.726562 T:1290793968    INFO: ffmpeg[4CEFF3F0]:       DATE            : 1992
12:38:09 76800.726562 T:1290793968    INFO: ffmpeg[4CEFF3F0]:       GENRE           : Jazz
12:38:09 76800.726562 T:1290793968    INFO: ffmpeg[4CEFF3F0]:       DISCID          : 9c127e0c
12:38:09 76800.726562 T:1290793968    INFO: ffmpeg[4CEFF3F0]:       ARTIST          : Herbie Hancock
12:38:09 76800.726562 T:1290793968    INFO: ffmpeg[4CEFF3F0]:       ALBUM ARTIST    : Various
12:38:09 76800.726562 T:1290793968    INFO: ffmpeg[4CEFF3F0]:       TITLE           : Olilloqui Valley
12:38:09 76800.726562 T:1290793968    INFO: ffmpeg[4CEFF3F0]:       track           : 12
12:38:09 76800.726562 T:1290793968    INFO: ffmpeg[4CEFF3F0]:       TRACKTOTAL      : 12
12:38:09 76800.726562 T:1290793968   DEBUG: CDVDDemuxFFmpeg::AddStream(0, ...) -> 0
12:38:09 76800.726562 T:1290793968   DEBUG: FactoryCodec - Audio: passthrough - Opening
12:38:09 76800.726562 T:1290793968   DEBUG: FactoryCodec - Audio: passthrough - Failed
12:38:09 76800.726562 T:1290793968   DEBUG: FactoryCodec - Audio: FFmpeg - Opening
12:38:09 76800.734375 T:1290793968   DEBUG: FactoryCodec - Audio: FFmpeg - Opened
12:38:09 76800.867188 T:1290793968   DEBUG: unrecognized XipComment name: DISCID
12:38:09 76800.867188 T:1290793968   DEBUG: unrecognized XipComment name: TRACKTOTAL
12:38:09 76800.867188 T:1290793968   DEBUG: SeekTime - seek ended up on time 0
12:38:09 76800.976562 T:1290793968   DEBUG: Previous line repeats 2 times.
12:38:09 76800.976562 T:1290793968    INFO: AudioDecoder: File is queued
12:38:09 76800.976562 T:1290793968   DEBUG: AudioDecoder::GetReplayGain - Final Replaygain applied: 1.000000, Track/Album Gain 89.000000, Peak 0.000000
12:38:09 76801.062500 T:1946153968   DEBUG: CActiveAE::ClearDiscardedBuffers - buffer pool deleted
12:38:09 76801.070312 T:1290793968    INFO: PAPlayer::PrepareStream - Ready
12:38:09 76801.070312 T:1299182576   DEBUG: OnPlayBackStarted: play state was 2, starting 0
12:38:09 76801.101562 T:1956393904   DEBUG: CGUIInfoManager::SetCurrentSong(musicdb://recentlyplayedalbums/1689/11736.ogg?albumid=1689)
12:38:09 76801.140625 T:1956393904   DEBUG: SELECT albumview.*,albumartistview.*   FROM albumview   LEFT JOIN albumartistview ON albumview.idAlbum = albumartistview.idAlbum   WHERE albumview.idAlbum = 1689   ORDER BY albumartistview.iOrder
12:38:09 76801.179688 T:1956393904   DEBUG: Loading additional tag info for file /media/6562bc91-d77c-3353-a287-09a746a45bb2/Musik/Various (1992) Blue Break Beats Volume 1 (1964-73)/12 - Herbie Hancock - Olilloqui Valley.ogg
12:38:09 76801.179688 T:1956393904   DEBUG: unrecognized XipComment name: DISCID
12:38:09 76801.179688 T:1956393904   DEBUG: unrecognized XipComment name: TRACKTOTAL
12:38:09 76801.179688 T:1956393904   DEBUG: CAnnouncementManager - Announcement: OnPlay from xbmc
12:38:09 76801.179688 T:1956393904   DEBUG: GOT ANNOUNCEMENT, type: 1, from xbmc, message OnPlay
12:38:09 76801.179688 T:1956393904   DEBUG: UPnP: Building didl for object 'musicdb://recentlyplayedalbums/1689/11736.ogg?albumid=1689'
12:38:10 76801.601562 T:1278211056   DEBUG: DoWork - Saving file state for audio item musicdb://recentlyplayedalbums/1689/11735.ogg?albumid=1689
12:38:10 76801.617188 T:1278211056   DEBUG: DoWork - Marking audio item musicdb://recentlyplayedalbums/1689/11735.ogg?albumid=1689 as listened


The first file i'm trying to play doesn't work (Blackjack), the track afterwards runs fine although it's the same file-format.

Thanks for helping me!
Reply
#2
Kodi version please, snippet from log does not show it.

That only some ogg files don't play would imply that there is something about those that ffmpeg does not like. More that that I have no idea.
Reply
#3
Kodi Version: 16.1
OS: latest osmc on RPi2B

I ripped the song that doesn't play from CD, it works well with ffplay command in console. All other songs of this album-rip play fine in kodi. Strange
Reply
#4
can you share the sample?
Reply



Logout Mark Read Team Forum Stats Members Help
Playback-problem with ogg-files0
This forum uses Lukasz Tkacz MyBB addons.