Kodi 18 - LibreELEC Testbuilds for RaspberryPi (Kodi 18.0)

  Thread Rating:
  • 6 Vote(s) - 4.83 Average
  • 1
  • 2
  • 3
  • 4
  • 5
Post Reply
Solo0815 Offline
Posting Freak
Posts: 940
Joined: Sep 2004
Reputation: 9
Location: Germany
Post: #1126
I posted this bug already in the skinning forum and on trac, but didn't get any response.
Maybe you can help:
$INFO[VideoPlayer.StartTime] with Live-TV is counting back 2-3 times every sec
http://forum.kodi.tv/showthread.php?tid=...pid2529596

Sorry for crossposting Blush
Thx for looking into it

Edit: Maybe someone of the Mods can merge the two threads:
http://forum.kodi.tv/showthread.php?tid=305809 and http://forum.kodi.tv/showthread.php?tid=...pid2529596

PC: Kubuntu 16.10 and Win7/10 --- Wetek Play: LibreELEC 7.95.x --- RPi3: 7.95.x --- NAS: OMV 2.x
(This post was last modified: 2017-03-04 21:33 by Solo0815.)
find quote
MaxMustermann Offline
Member
Posts: 84
Joined: Sep 2009
Reputation: 34
Post: #1127
I posted this bug too: http://forum.kodi.tv/showthread.php?tid=305809. FernetMenta said that it's a known bug for a long time. Seems to be independent from PVR backend.
find quote
nuwonda Offline
Member
Posts: 63
Joined: Oct 2006
Reputation: 1
Post: #1128
#303 cant wake kodi from dimmed state, need to use phone app. seems that old issue is back.

btw the yellow flash icon from #302 after rainbow splash screen is gone now in #303.
find quote
Milhouse Offline
Team-Kodi Member
Posts: 12,883
Joined: Jan 2011
Reputation: 643
Post: #1129
New LibreELEC.tv Leia build #0304: RPi / RPi2
(Supercedes previous build)

Code:
# uname -a
Linux rpi512 4.10.1 #1 Sat Mar 4 23:40:42 GMT 2017 armv6l GNU/Linux

# vcgencmd version
Mar  2 2017 15:37:10
Copyright (c) 2012 Broadcom
version a867bcec14cd829107be1c03c0953a076919f4d7 (clean) (release)

# lsb_release
LibreELEC (Milhouse) - Version: devel-20170304233937-#0304-gb6b7064 [Build #0304]

# Kodi version
(18.0-ALPHA1 Git:4c792db). Platform: Linux ARM 32-bit

Based on tip of LibreELEC.tv master (b6b70647, changelog) and tip of XBMC master (2bbf02dd, changelog) with the following modifications: Build Highlights:
  1. ffmpeg: Call get_format to fix an issue with MMAL rendering
Build Details:
  1. XBMC:
    • [xbmc][depends][fix] New build of libass and freetype to try and fix subtitle font issues (PR:11800, 1 commit, 1 file changed)
    • [cmake/windowing] fix dependencies X11/XRandR/OpenGLES (PR:11805, 1 commit, 3 files changed)
  2. peripheral.joystick:
    • Some Android button maps (PR:89, 5 commits, 8 files changed)
  3. Additional commits/pull requests/changes not yet merged upstream:
    • Added: [pkg] patch: ffmpeg: Call get_format to fix an issue with MMAL rendering [temp hack] (ffmpeg)

Texture Cache Maintenance Utility: Preload your texture cache for optimal UI performance. Remotely manage media libraries. Purge unused artwork to free up space. Find missing media. Configurable QA check to highlight metadata issues. Aid in diagnosis of library and cache related problems.
find quote
ezar Offline
Junior Member
Posts: 27
Joined: Jan 2007
Reputation: 0
Post: #1130
Can you update libreelec repo 9? I can't use addons section!
Please!
find quote
Memphiz Offline
Kodi MVP
Posts: 16,092
Joined: Feb 2011
Reputation: 227
Location: germany
Post: #1131
Did anyone else notice that shadertoy performance degraded somewhere in the latest build (using #304 atm). Using the lava shadertoy screensaver it heavily stutters for me. Also a subjective feeling tells me that overall UI performance regressed a bit. (This is rbpi3 stock clocks)

AppleTV4/iPhone/iPod/iPad: HowTo find debug logs and everything else which the devs like so much: click here
HowTo setup NFS for Kodi: NFS (wiki)
HowTo configure avahi (zeroconf): Avahi_Zeroconf (wiki)
READ THE IOS FAQ!: iOS FAQ (wiki)
find quote
Sysiphus Offline
Junior Member
Posts: 9
Joined: Nov 2011
Reputation: 0
Location: germany
Post: #1132
(2017-03-05 12:23)ezar Wrote:  Can you update libreelec repo 9? I can't use addons section!
Please!
Seems like the Repo (is) was offline atm :
Quote:server:~# dig milhouse.libreelec.tv
...
;; ANSWER SECTION:
milhouse.libreelec.tv. 299 IN A 163.172.166.199
...

C:\Users\Sysiphus>ping 163.172.166.199

Ping wird ausgeführt für 163.172.166.199 mit 32 Bytes Daten:
Zeitüberschreitung der Anforderung.

Edit:
Already fixed while i was writing Smile
server:~# ping milhouse.libreelec.tv
PING milhouse.libreelec.tv (163.172.166.199) 56(84) bytes of data.
64 bytes from web03.libreelec.tv (163.172.166.199): icmp_seq=1 ttl=53 time=31.1 ms
find quote
Milhouse Offline
Team-Kodi Member
Posts: 12,883
Joined: Jan 2011
Reputation: 643
Post: #1133
(2017-03-05 12:23)ezar Wrote:  Can you update libreelec repo 9? I can't use addons section!
Please!
Hopefully soon!

Quote:9.0 repo is something to be investigated in the next few days .. there’s some merging to do first

Texture Cache Maintenance Utility: Preload your texture cache for optimal UI performance. Remotely manage media libraries. Purge unused artwork to free up space. Find missing media. Configurable QA check to highlight metadata issues. Aid in diagnosis of library and cache related problems.
find quote
popcornmix Offline
Team-Kodi Member
Posts: 7,865
Joined: Feb 2011
Reputation: 326
Post: #1134
(2017-03-05 13:38)Memphiz Wrote:  Did anyone else notice that shadertoy performance degraded somewhere in the latest build (using #304 atm). Using the lava shadertoy screensaver it heavily stutters for me. Also a subjective feeling tells me that overall UI performance regressed a bit. (This is rbpi3 stock clocks)

Are you saying #303 is good? Identifying the last good build is very useful.
I don't see a reason why performance should have regressed.
find quote
ezar Offline
Junior Member
Posts: 27
Joined: Jan 2007
Reputation: 0
Post: #1135
Is there any option to install the systools?
I need hd-idle but when I want to install from repo it fails. Is it because there is no access to 9 repository?

(2017-03-05 13:56)Milhouse Wrote:  
(2017-03-05 12:23)ezar Wrote:  Can you update libreelec repo 9? I can't use addons section!
Please!
Hopefully soon!

Quote:9.0 repo is something to be investigated in the next few days .. there’s some merging to do first
find quote
Milhouse Offline
Team-Kodi Member
Posts: 12,883
Joined: Jan 2011
Reputation: 643
Post: #1136
(2017-03-05 20:12)ezar Wrote:  Is there any option to install the systools?
I need hd-idle but when I want to install from repo it fails. Is it because there is no access to 9 repository?

Yes, almost certainly.

As a temporary workaround you could downgrade to the last 8.0 build, #0201 (or downgrade to the official LibreELEC 8.0 release), install the System Tools add-on from the LE 8.0 repository, then finally upgrade back to the latest 9.0 test build. For simple command line tools this should work.

Texture Cache Maintenance Utility: Preload your texture cache for optimal UI performance. Remotely manage media libraries. Purge unused artwork to free up space. Find missing media. Configurable QA check to highlight metadata issues. Aid in diagnosis of library and cache related problems.
(This post was last modified: 2017-03-06 08:40 by Milhouse.)
find quote
Milhouse Offline
Team-Kodi Member
Posts: 12,883
Joined: Jan 2011
Reputation: 643
Post: #1137
New LibreELEC.tv Leia build #0305: RPi / RPi2
(Supercedes previous build)

Code:
# uname -a
Linux rpi512 4.10.1 #1 Mon Mar 6 06:19:22 GMT 2017 armv6l GNU/Linux

# vcgencmd version
Mar  2 2017 15:37:10
Copyright (c) 2012 Broadcom
version a867bcec14cd829107be1c03c0953a076919f4d7 (clean) (release)

# lsb_release
LibreELEC (Milhouse) - Version: devel-20170306061816-#0305-g4ba2169 [Build #0305]

# Kodi version
(18.0-ALPHA1 Git:4c792db). Platform: Linux ARM 32-bit

Based on tip of LibreELEC.tv master (4ba21693, changelog) and tip of XBMC master (bdcdaa7d, changelog) with the following modifications: Build Highlights:
  1. VidoePlayer: make no-key-frame-fallback dependent on fps
Build Details:
  1. LibreELEC.tv:
    • libdrm: adjust default options (PR:1401, 2 commits, 1 file changed)
  2. XBMC:
    • [Android] pycryptodome packaging namespace fix (PR:11808, 1 commit, 1 file changed)
    • Revert "[filesystem/samba] - use vfs instead of $home" (PR:11810, 1 commit, 1 file changed)
    • VidoePlayer: make no-key-frame-fallback dependent on fps (PR:11802, 1 commit, 1 file changed)
    • Use {fmt} instead of custom sprintf (PR:11039, 2 commits, 17 files changed)
    • Change SetShellVarContext from current to all (PR:11809, 1 commit, 1 file changed)
  3. Additional commits/pull requests/changes not yet merged upstream:
    • Added: [env] PR:1424: buildsystem: Don't restrict PKG_NEED_UNPACK to package.mk
    • Added: [env] PR:1426: libfmt: add package, add as a new kodi dependency

Texture Cache Maintenance Utility: Preload your texture cache for optimal UI performance. Remotely manage media libraries. Purge unused artwork to free up space. Find missing media. Configurable QA check to highlight metadata issues. Aid in diagnosis of library and cache related problems.
find quote
Kirnikitin Offline
Junior Member
Posts: 4
Joined: Dec 2016
Reputation: 0
Post: #1138
Kodi plays that files only with SW decoding.
Code:
General
ID                                       : 1 (0x1)
Complete name                            : F:\The Abyss\The Abyss (1989).ts
Format                                   : MPEG-TS
File size                                : 12.9 GiB
Duration                                 : 2 h 43 min
Overall bit rate mode                    : Variable
Overall bit rate                         : 11.3 Mb/s
Maximum Overall bit rate                 : 35.5 Mb/s

Video
ID                                       : 4113 (0x1011)
Menu ID                                  : 1 (0x1)
Format                                   : AVC
Format/Info                              : Advanced Video Codec
Format profile                           : [email protected]
Codec ID                                 : 27
Duration                                 : 2 h 43 min
Bit rate                                 : 7 703 kb/s
Stream size                              : 8.82 GiB (68%)

Audio #1
ID                                       : 4352 (0x1100)
Menu ID                                  : 1 (0x1)
Format                                   : AC-3
Format/Info                              : Audio Coding 3
Mode extension                           : CM (complete main)
Format settings, Endianness              : Big
Codec ID                                 : 129
Duration                                 : 2 h 43 min
Bit rate mode                            : Constant
Bit rate                                 : 224 kb/s
Channel(s)                               : 2 channels
Channel positions                        : Front: L R
Sampling rate                            : 48.0 kHz
Frame rate                               : 31.250 FPS (1536 spf)
Bit depth                                : 16 bits
Compression mode                         : Lossy
Delay relative to video                  : 120 ms
Stream size                              : 262 MiB (2%)
Language                                 : Russian

Audio #2
ID                                       : 4353 (0x1101)
Menu ID                                  : 1 (0x1)
Format                                   : AC-3
Format/Info                              : Audio Coding 3
Mode extension                           : CM (complete main)
Format settings, Endianness              : Big
Codec ID                                 : 129
Duration                                 : 2 h 43 min
Bit rate mode                            : Constant
Bit rate                                 : 224 kb/s
Channel(s)                               : 2 channels
Channel positions                        : Front: L R
Sampling rate                            : 48.0 kHz
Frame rate                               : 31.250 FPS (1536 spf)
Bit depth                                : 16 bits
Compression mode                         : Lossy
Delay relative to video                  : 120 ms
Stream size                              : 262 MiB (2%)
Language                                 : Russian

Audio #3
ID                                       : 4354 (0x1102)
Menu ID                                  : 1 (0x1)
Format                                   : AC-3
Format/Info                              : Audio Coding 3
Mode extension                           : CM (complete main)
Format settings, Endianness              : Big
Codec ID                                 : 129
Duration                                 : 2 h 43 min
Bit rate mode                            : Constant
Bit rate                                 : 448 kb/s
Channel(s)                               : 6 channels
Channel positions                        : Front: L C R, Side: L R, LFE
Sampling rate                            : 48.0 kHz
Frame rate                               : 31.250 FPS (1536 spf)
Bit depth                                : 16 bits
Compression mode                         : Lossy
Delay relative to video                  : 120 ms
Stream size                              : 525 MiB (4%)
Language                                 : Russian

Audio #4
ID                                       : 4355 (0x1103)
Menu ID                                  : 1 (0x1)
Format                                   : AC-3
Format/Info                              : Audio Coding 3
Mode extension                           : CM (complete main)
Format settings, Endianness              : Big
Codec ID                                 : 129
Duration                                 : 2 h 43 min
Bit rate mode                            : Constant
Bit rate                                 : 192 kb/s
Channel(s)                               : 2 channels
Channel positions                        : Front: L R
Sampling rate                            : 48.0 kHz
Frame rate                               : 31.250 FPS (1536 spf)
Bit depth                                : 16 bits
Compression mode                         : Lossy
Delay relative to video                  : 120 ms
Stream size                              : 225 MiB (2%)
Language                                 : Russian

Audio #5
ID                                       : 4356 (0x1104)
Menu ID                                  : 1 (0x1)
Format                                   : AC-3
Format/Info                              : Audio Coding 3
Mode extension                           : CM (complete main)
Format settings, Endianness              : Big
Codec ID                                 : 129
Duration                                 : 2 h 43 min
Bit rate mode                            : Constant
Bit rate                                 : 192 kb/s
Channel(s)                               : 2 channels
Channel positions                        : Front: L R
Sampling rate                            : 48.0 kHz
Frame rate                               : 31.250 FPS (1536 spf)
Bit depth                                : 16 bits
Compression mode                         : Lossy
Delay relative to video                  : 120 ms
Stream size                              : 225 MiB (2%)
Language                                 : Russian

Audio #6
ID                                       : 4357 (0x1105)
Menu ID                                  : 1 (0x1)
Format                                   : AC-3
Format/Info                              : Audio Coding 3
Mode extension                           : CM (complete main)
Format settings, Endianness              : Big
Codec ID                                 : 129
Duration                                 : 2 h 43 min
Bit rate mode                            : Constant
Bit rate                                 : 192 kb/s
Channel(s)                               : 2 channels
Channel positions                        : Front: L R
Sampling rate                            : 48.0 kHz
Frame rate                               : 31.250 FPS (1536 spf)
Bit depth                                : 16 bits
Compression mode                         : Lossy
Delay relative to video                  : 120 ms
Stream size                              : 225 MiB (2%)
Language                                 : Russian

Audio #7
ID                                       : 4358 (0x1106)
Menu ID                                  : 1 (0x1)
Format                                   : DTS
Format/Info                              : Digital Theater Systems
Mode                                     : 16
Format settings, Endianness              : Big
Codec ID                                 : 130
Duration                                 : 2 h 43 min
Bit rate mode                            : Constant
Bit rate                                 : 1 509 kb/s
Channel(s)                               : 6 channels
Channel positions                        : Front: L C R, Side: L R, LFE
Sampling rate                            : 48.0 kHz
Frame rate                               : 93.750 FPS (512 spf)
Bit depth                                : 24 bits
Compression mode                         : Lossy
Delay relative to video                  : 80 ms
Stream size                              : 1.73 GiB (13%)
Language                                 : English

Text #1
ID                                       : 4608 (0x1200)
Menu ID                                  : 1 (0x1)
Format                                   : PGS
Codec ID                                 : 144
Language                                 : Russian

Text #2
ID                                       : 4609 (0x1201)
Menu ID                                  : 1 (0x1)
Format                                   : PGS
Codec ID                                 : 144
Language                                 : English

Code:
General
ID                                       : 1 (0x1)
Complete name                            : F:\How to Murder Your Wife\How to Murder Your Wife.ts
Format                                   : MPEG-TS
File size                                : 6.07 GiB
Duration                                 : 1 h 53 min
Overall bit rate mode                    : Variable
Overall bit rate                         : 7 643 kb/s
Maximum Overall bit rate                 : 35.5 Mb/s

Video
ID                                       : 4113 (0x1011)
Menu ID                                  : 1 (0x1)
Format                                   : AVC
Format/Info                              : Advanced Video Codec
Format profile                           : [email protected]
Format settings, CABAC                   : Yes
Format settings, ReFrames                : 4 frames
Format settings, GOP                     : M=4, N=28
Codec ID                                 : 27
Duration                                 : 1 h 53 min
Bit rate mode                            : Variable
Bit rate                                 : 6 877 kb/s
Maximum bit rate                         : 40.0 Mb/s
Width                                    : 1 920 pixels
Height                                   : 1 080 pixels
Display aspect ratio                     : 16:9
Frame rate                               : 25.000 FPS
Standard                                 : Component
Color space                              : YUV
Chroma subsampling                       : 4:2:0
Bit depth                                : 8 bits
Scan type                                : Interlaced
Scan type, store method                  : Separated fields
Scan order                               : Top Field First
Bits/(Pixel*Frame)                       : 0.133
Stream size                              : 5.46 GiB (90%)
Color range                              : Limited
Color primaries                          : BT.709
Transfer characteristics                 : BT.709
Matrix coefficients                      : BT.709

Audio #1
ID                                       : 4352 (0x1100)
Menu ID                                  : 1 (0x1)
Format                                   : MPEG Audio
Format version                           : Version 1
Format profile                           : Layer 2
Codec ID                                 : 4
Duration                                 : 1 h 53 min
Bit rate mode                            : Constant
Bit rate                                 : 192 kb/s
Channel(s)                               : 2 channels
Sampling rate                            : 48.0 kHz
Compression mode                         : Lossy
Stream size                              : 156 MiB (3%)
Language                                 : Russian

Audio #2
ID                                       : 4353 (0x1101)
Menu ID                                  : 1 (0x1)
Format                                   : MPEG Audio
Format version                           : Version 1
Format profile                           : Layer 2
Codec ID                                 : 4
Duration                                 : 1 h 53 min
Bit rate mode                            : Constant
Bit rate                                 : 192 kb/s
Channel(s)                               : 2 channels
Sampling rate                            : 48.0 kHz
Compression mode                         : Lossy
Stream size                              : 156 MiB (3%)
Language                                 : English
It starts with one of 8th release.
find quote
SpokV Offline
Junior Member
Posts: 44
Joined: Mar 2016
Reputation: 0
Post: #1139
Last version 305 I've lost the volume circle progress and on boot when db are scanned the numbers are decimal instead of %.
find quote
Memphiz Offline
Kodi MVP
Posts: 16,092
Joined: Feb 2011
Reputation: 227
Location: germany
Post: #1140
(2017-03-05 14:13)popcornmix Wrote:  
(2017-03-05 13:38)Memphiz Wrote:  Did anyone else notice that shadertoy performance degraded somewhere in the latest build (using #304 atm). Using the lava shadertoy screensaver it heavily stutters for me. Also a subjective feeling tells me that overall UI performance regressed a bit. (This is rbpi3 stock clocks)

Are you saying #303 is good? Identifying the last good build is very useful.
I don't see a reason why performance should have regressed.


Nope mistyped it - somewhere between 203 and 304 (sorry - i was on krypton for quiet a while and just jumped to Leia now)

AppleTV4/iPhone/iPod/iPad: HowTo find debug logs and everything else which the devs like so much: click here
HowTo setup NFS for Kodi: NFS (wiki)
HowTo configure avahi (zeroconf): Avahi_Zeroconf (wiki)
READ THE IOS FAQ!: iOS FAQ (wiki)
find quote
Post Reply