•   
  • 1
  • 10
  • 11
  • 12(current)
  • 13
  • 14
  • 43
  •   
High-Definition Video Flagging (library filtering/sorting & skin thumbnails overlay)?
Sorry to double post but here's what I get for DTS-MA tracks

Quote:20:52:50 T:3672 M:868380672 INFO: ffmpeg: Input #0, matroska, from 'F:\Movies\Wall-e (2008)\Wall-e (2008).mkv':
20:52:50 T:3672 M:868380672 INFO: ffmpeg: Duration: 01:38:41.99, start: 0.000000, bitrate: N/A
20:52:50 T:3672 M:868360192 INFO: ffmpeg: Stream #0.0(eng): Video: h264, yuv420p, 1920x1080, 23.98 tb®
20:52:50 T:3672 M:868356096 INFO: ffmpeg: Stream #0.1(eng): Audio: flac, 48000 Hz, 5.1, s16
20:52:50 T:3672 M:868352000 INFO: ffmpeg: Stream #0.2(eng): Audio: dca, 48000 Hz, 5.1, s16
20:52:50 T:3672 M:868347904 INFO: ffmpeg: Stream #0.3(eng): Audio: ac3, 48000 Hz, stereo, s16
20:52:50 T:3672 M:868347904 INFO: ffmpeg: Stream #0.4(eng): Audio: ac3, 48000 Hz, stereo, s16

and EAC-3 tracks:

Quote:20:53:35 T:6460 M:867209216 INFO: ffmpeg: Input #0, matroska, from 'F:\Movies\The Mummy (1999)\The Mummy (1999).mkv':
20:53:35 T:6460 M:867209216 INFO: ffmpeg: Duration: 02:04:53.21, start: 0.000000, bitrate: N/A
20:53:35 T:6460 M:867205120 INFO: ffmpeg: Stream #0.0(eng): Video: vc1, yuv420p, 1920x1080 [PAR 1:1 DAR 16:9], 23.98 tb®
20:53:35 T:6460 M:867205120 INFO: ffmpeg: Stream #0.1(eng): Audio: eac3, 48000 Hz, 5.1, s16
20:53:35 T:6460 M:867205120 INFO: ffmpeg: Stream #0.2(eng): Audio: ac3, 48000 Hz, 5.1, s16
20:53:35 T:6460 M:867205120 INFO: ffmpeg: Stream #0.3(eng): Audio: flac, 48000 Hz, 5.1, s16

Maybe ffmpeg does distinguish between AC3 and EAC-3 afterall, but reads "dca" for all DTS content (actually it may just be picking up the core track to the DTS-MA) I don't have any native TrueHD tracks around actually but I'll rip one later and check how XBMC detects that if at all.
Reply
Freddo Wrote:Maybe ffmpeg does distinguish between AC3 and EAC-3 afterall, but reads "dca" for all DTS content (actually it may just be picking up the core track to the DTS-MA) I don't have any native TrueHD tracks around actually but I'll rip one later and check how XBMC detects that if at all.
FFmpeg supports EAC-3/MLP/TrueHD, but it does not support DTS-HD, that must be the reason for it, see:
http://ffmpeg.org/changelog.html

and FFmpeg currently uses libdca for DTS decoding and it does not support DTS-HD neither:
http://www.videolan.org/developers/libdca.html

FFmpeg said they suggest it as a Google Summer of Code project if there where specifications available, see:
http://wiki.multimedia.cx/index.php?titl..._Code_2009

and the VLC (VideoLAN Client) developers who code libdca don't even have a wiki page for GSoC 2009 yet:
http://wiki.videolan.org/Soc

Rolleyes
Always read the XBMC online-manual, FAQ and search the forum before posting.
Do not e-mail XBMC-Team members directly asking for support. Read/follow the forum rules.
For troubleshooting and bug reporting please make sure you read this first.
Reply
could it also detect codec?

here is example

Image
Reply
Whoa! Sorry to momentarily jack the thread, but what skin is that nekrosoft? It looks similar to Aeon, but definitely a little different.
Reply
natethomas Wrote:Whoa! Sorry to momentarily jack the thread, but what skin is that nekrosoft? It looks similar to Aeon, but definitely a little different.

Skin is called "Vintage"...under MedioOS, I think...
Reply
nekrosoft13 Wrote:could it also detect codec?
I don't know.
CapnBry Wrote:Information pulled:
Video Codec
Video Width -> becomes VideoResolution
Audio Codec
Audio Channel Count
Oh wait I do know. Yes it does.
Reply
Heya CapnBry...just curious as to if this is still in progress or if you have anything new for use to play with? Thanks Smile
Reply
Nothing to report. I've had some health issues recently so when I go home from work I haven't been able to code.
Reply
Ohh ok...thanks for the reply. Take care of yourself. Obviously this project is backseat to anyone's health in real life.
Reply
@capnbry: get well!!
Reply
I'm posting only to support this great feature. Hope this could be available very soon.

Keep up the good work !

Cheers
Reply
Man i was hoping for something like this jus so I know if I get to use my reciever in 5.1 mode or 2ch and this is awesome. Wink
Reply
Feel better, CapnBry!

Indeed, icon overlays for resolution, ratings, and a/v codecs would be awesome!
Reply
Agreed. Smile This stuff will be great when added to XBMC, but for now, take all the time you need to get better. People have been waiting for many months for this, a few extra days or weeks won't hurt too much.
Reply
Get well soon Capn'!
Reply
  •   
  • 1
  • 10
  • 11
  • 12(current)
  • 13
  • 14
  • 43
  •   



Logout Mark Read Team Forum Stats Members Help
High-Definition Video Flagging (library filtering/sorting & skin thumbnails overlay)?7
This forum uses Lukasz Tkacz MyBB addons.