Vu+ PVR addon is getting updates again
(2019-02-13, 15:27)phunkyfish Wrote: I see this in your log:

Code:

NOTICE: VideoPlayer::OpenFile: pvr://channels/tv/All channels/pvr.vuplus_54.pvr
DEBUG: AddOnLog: Enigma2 Client: pvr.vuplus - Enigma2::OpenLiveStream: channel=54 
DEBUG: AddOnLog: Enigma2 Client: pvr.vuplus - enigma2::StreamReader::StreamReader StreamReader: Started; url=http://192.168.1.106:8001/1:0:1:209:27:36:CE40000:0:0:0
DEBUG: CurlFile::Open(0x179ecb8c2d0) http://192.168.1.106:8001/1:0:1:209:27:36:CE40000:0:0:0 
DEBUG: CInputStreamPVRChannel - CInputStreamPVRChannel::OpenPVRStream - opened channel stream pvr://channels/tv/All channels/pvr.vuplus_54.pvr
NOTICE: Creating Demuxer
DEBUG: CDVDDemuxFFmpeg::Open - probing detected format [mpegts]
INFO: ffmpeg[3198]: Input #0, mpegts, from 'pvr://channels/tv/All channels/pvr.vuplus_54.pvr':
INFO: ffmpeg[3198]: Stream #0:0[0x1081](eng): Audio: mp3 ([4][0][0][0] / 0x0004), 0 channels 
INFO: ffmpeg[3198]: Stream #0:1[0x1080]: Video: h264 ([27][0][0][0] / 0x001B), none, 90k tbn
DEBUG: CDVDDemuxFFmpeg::AddStream ID: 0
DEBUG: CDVDDemuxFFmpeg::AddStream ID: 1
NOTICE: Opening stream: 1 source: 256 12:10:59.912 T:12696 WARNING: CVideoPlayer::OpenStream - Unsupported stream 1. Stream disabled.


CVideoPlayer::OpenStream - Unsupported stream 1. Stream disabled. Stream 1 is your video stream, I don't however know why kodi won't play it.

And if you open this stream directly it works?: http://192.168.1.106:8001/1:0:1:209:27:36:CE40000:0:0:0
 The channel i try to play its Eleven Sports but i try with others and only a few open. With Dream EPG app all channels works...

Yeah,if i open directly it works.
Reply


Messages In This Thread
RE: Vu+ PVR addon is getting updates again - by djnata - 2019-02-13, 17:10


Logout Mark Read Team Forum Stats Members Help
Vu+ PVR addon is getting updates again3
This forum uses Lukasz Tkacz MyBB addons.