Solved XVID files with MP3 audio play in slow motion
#5
(2018-11-13, 22:39)fritsch Wrote:
Code:
ffmpeg -i yourfile -o yournewfile
I don't know what you're getting at, but I executed the above command and the newly created file jerks as well Sad

See for yourself:
TestNEW.avi

Code:
ffmpeg -i Test.avi TestNEW.avi
ffmpeg version 4.0.1 Copyright © 2000-2018 the FFmpeg developers
  built with gcc 7.3.1 (GCC) 20180710
  configuration: --enable-gpl --enable-version3 --enable-sdl2 --enable-bzlib --enable-fontconfig --enable-gnutls --enable-iconv --enable-libass --enable-libbluray --enable-libfreetype --enable-libmp3lame --enable-libopencore-amrnb --enable-libopencore-amrwb --enable-libopenjpeg --enable-libopus --enable-libshine --enable-libsnappy --enable-libsoxr --enable-libtheora --enable-libtwolame --enable-libvpx --enable-libwavpack --enable-libwebp --enable-libx264 --enable-libx265 --enable-libxml2 --enable-libzimg --enable-lzma --enable-zlib --enable-gmp --enable-libvidstab --enable-libvorbis --enable-libvo-amrwbenc --enable-libmysofa --enable-libspeex --enable-libxvid --enable-libaom --enable-libmfx --enable-amf --enable-ffnvcodec --enable-cuvid --enable-d3d11va --enable-nvenc --enable-nvdec --enable-dxva2 --enable-avisynth
  libavutil      56. 14.100 / 56. 14.100
  libavcodec     58. 18.100 / 58. 18.100
  libavformat    58. 12.100 / 58. 12.100
  libavdevice    58.  3.100 / 58.  3.100
  libavfilter     7. 16.100 /  7. 16.100
  libswscale      5.  1.100 /  5.  1.100
  libswresample   3.  1.100 /  3.  1.100
  libpostproc    55.  1.100 / 55.  1.100
Input #0, avi, from 'Test.avi':
  Duration: 00:01:48.68, start: 0.000000, bitrate: 2049 kb/s
    Stream #0:0: Video: mpeg4 (Advanced Simple Profile) (XVID / 0x44495658), yuv420p, 720x400 [SAR 1:1 DAR 9:5], 1752 kb/s, 25 fps, 25 tbr, 25 tbn, 25 tbc
    Stream #0:1: Audio: mp3 (U[0][0][0] / 0x0055), 48000 Hz, stereo, fltp, 123 kb/s
    Stream #0:2: Audio: mp3 (U[0][0][0] / 0x0055), 48000 Hz, stereo, fltp, 123 kb/s
Stream mapping:
  Stream #0:0 -> #0:0 (mpeg4 (native) -> mpeg4 (native))
  Stream #0:1 -> #0:1 (mp3 (mp3float) -> mp3 (libmp3lame))
Press [q] to stop, [?] for help
Output #0, avi, to 'TestNEW.avi':
  Metadata:
    ISFT            : Lavf58.12.100
    Stream #0:0: Video: mpeg4 (FMP4 / 0x34504D46), yuv420p, 720x400 [SAR 1:1 DAR 9:5], q=2-31, 200 kb/s, 25 fps, 25 tbn, 25 tbc
    Metadata:
      encoder         : Lavc58.18.100 mpeg4
    Side data:
      cpb: bitrate max/min/avg: 0/0/200000 buffer size: 0 vbv_delay: -1
    Stream #0:1: Audio: mp3 (libmp3lame) (U[0][0][0] / 0x0055), 48000 Hz, stereo, fltp
    Metadata:
      encoder         : Lavc58.18.100 libmp3lame
frame= 2717 fps=451 q=24.8 Lsize=    7051kB time=00:01:48.72 bitrate= 531.3kbits/s speed=18.1x
video:5172kB audio:1698kB subtitle:0kB other streams:0kB global headers:0kB muxing overhead: 2.633497%

Reply


Messages In This Thread
RE: XVID files with MP3 audio play in slow motion - by rainman74 - 2018-11-13, 23:09


Logout Mark Read Team Forum Stats Members Help
XVID files with MP3 audio play in slow motion0
This forum uses Lukasz Tkacz MyBB addons.