The TVDB scraper is currently broken due to upgrade works at TheTVDB site. We hope this issue will be resolved quickly.

Solved Bogus tech info
#1
When I hit the tech info button then Kodi tells me the movie playing is 962x736. But it is 720 really. Just wondering, why Kodi thinks it is 736? The container is MKV, video is H.265. All  movies encoded using SW encoder show up as 720, all movies encoded using nVidia hardware encoding show 736, but only in Kodi. Every other tool tells me 720. Just curious ...
Reply
#2
What does MediaInfo state... 1707519 (post)
My Signature
Links to : Forum rules (wiki) | Banned_Add-ons (wiki) | Debug Log (wiki)  
Links to : HOW-TO:Create_Music_Library (wiki) | HOW-TO:Create_Video_Library (wiki)  ||  Artwork (wiki) | Basic controls (wiki) | Import-export library (wiki) | Movie sets (wiki) | Movie universe (wiki) | NFO files (wiki) | Quick start guide (wiki)
Reply
#3
Code:
Complete name                            : /mnt/server/Videos/Oldies/Musical/Cant_Help_Singing_1944.mkv
Format                                   : Matroska
Format version                           : Version 4
File size                                : 1.03 GiB
Duration                                 : 1 h 29 min
Overall bit rate                         : 1 641 kb/s
Encoded date                             : UTC 2019-10-15 17:46:01
Writing application                      : mkvmerge v37.0.0 ('Leave It') 64-bit
Writing library                          : libebml v1.3.9 + libmatroska v1.5.2

Video
ID                                       : 1
Format                                   : HEVC
Format/Info                              : High Efficiency Video Coding
Format profile                           : [email protected]@main
Codec ID                                 : V_MPEGH/ISO/HEVC
Duration                                 : 1 h 29 min
Bit rate                                 : 1 586 kb/s
Width                                    : 962 pixels
Height                                   : 720 pixels
Display aspect ratio                     : 4:3
Frame rate mode                          : Constant
Frame rate                               : 23.976 (24000/1001) FPS
Color space                              : YUV
Chroma subsampling                       : 4:2:0
Bit depth                                : 8 bits
Bits/(Pixel*Frame)                       : 0.095
Stream size                              : 1 020 MiB (97%)
Default                                  : Yes
Forced                                   : No
Color range                              : Limited
Color primaries                          : BT.709
Transfer characteristics                 : BT.709
Matrix coefficients                      : BT.709

Audio
ID                                       : 2
Format                                   : Opus
Codec ID                                 : A_OPUS
Duration                                 : 1 h 29 min
Bit rate                                 : 53.4 kb/s
Channel(s)                               : 2 channels
Channel layout                           : L R
Sampling rate                            : 48.0 kHz
Frame rate                               : 50.000 FPS (960 SPF)
Compression mode                         : Lossy
Delay relative to video                  : 9 ms
Stream size                              : 34.4 MiB (3%)
Default                                  : Yes
Forced                                   : No

Text
ID                                       : 3
Format                                   : UTF-8
Codec ID                                 : S_TEXT/UTF8
Codec ID/Info                            : UTF-8 Plain Text
Duration                                 : 1 h 27 min
Bit rate                                 : 73 b/s
Count of elements                        : 1506
Stream size                              : 46.9 KiB (0%)
Language                                 : English
Default                                  : Yes
Forced                                   : No
Reply
#4
it's a macroblocking thing. macroblock size is 32, and 720 is not divisible so it has to be extended to the closest size which is 736. it's just a matter of which information is presented, it is scaled back to the correct size for display.
Reply
 
Thread Rating:
  • 0 Vote(s) - 0 Average



Logout Mark Read Team Forum Stats Members Help
Bogus tech info00