This weekend our forum will be unavailable for a few hours due to maintenance.

Release Formula 1
#1
Formula 1 season is starting. Nerd

You can now watch all videos from the F1 website (https://www.formula1.com/en/video.html) with this Kodi add-on:
 
I developed it today in about 8 hours, so there may be still some bugs and rough edges. If you have any feedback, please let me know.

Related to https://forum.kodi.tv/showthread.php?tid=351453.
Reply
#2
It works great, so far. Tried it on CoreElec, Kodi 18.5.
Thanks for this add-on.
Reply
#3
I released a new version which fixes the paging: https://github.com/jaylinski/kodi-addon-...rmula1.zip
Reply
#4
I released a new version which adds standings for drivers and constructors: https://github.com/jaylinski/kodi-addon-...0.0-beta.0
Reply
#5
(2020-08-08, 14:05)jay.kody Wrote: I released a new version which adds standings for drivers and constructors: https://github.com/jaylinski/kodi-addon-...0.0-beta.0

Nice work fella.
Reply
#6
The add-on is now available in the Kodi repository: https://kodi.tv/addon/plugins-video-add-ons/formula-1
Reply
#7
Not a F1 fan, but cheers to you for sharing your work with others!
Reply
#8
Great work on the addon! Thanks very much in the name of F1TV subscribers! FOM/LibertyMedia should pay you for it!
So is the F1 content actually DRM-free?
And I'd also like to know in which format, sample rate and bitrate the soundtracks of the streams are. The last time I tried F1TV it sounded like a 1997 Real Player stream but I heard that at least picture quality was significantly improved since that time.
Reply
#9
(2021-04-19, 18:33)villeneuve Wrote: Great work on the addon! Thanks very much in the name of F1TV subscribers! FOM/LibertyMedia should pay you for it!
So is the F1 content actually DRM-free?
And I'd also like to know in which format, sample rate and bitrate the soundtracks of the streams are. The last time I tried F1TV it sounded like a 1997 Real Player stream but I heard that at least picture quality was significantly improved since that time.
The "Formula 1"-addon (https://github.com/jaylinski/kodi-addon-formula1) uses public videos from the formula1.com website, which seem to be DRM free. I can't speak for the "F1TV"-addon (https://github.com/bbsan2k/plugin.video.f1tv).

Quality is good:
MP4:
    Stream #0:0(eng): Video: h264 (Constrained Baseline) (avc1 / 0x31637661), yuv420p, 1920x1080, 4466 kb/s, 25 fps, 25 tbr, 12800 tbn, 50 tbc (default)
    Stream #0:1(eng): Audio: aac (LC) (mp4a / 0x6134706D), 44100 Hz, stereo, fltp, 127 kb/s (default)
HLS:
  Program 6
    Metadata:
      variant_bitrate : 5761000
    Stream #0:12: Video: h264 (Constrained Baseline) ([27][0][0][0] / 0x001B), yuv420p, 1920x1080, 25 fps, 25 tbr, 90k tbn, 50 tbc
    Metadata:
      variant_bitrate : 5761000
    Stream #0:13: Audio: aac (LC) ([15][0][0][0] / 0x000F), 44100 Hz, stereo, fltp
Reply



Logout Mark Read Team Forum Stats Members Help
Formula 10
This forum uses Lukasz Tkacz MyBB addons.