Audio stream none
#12
I used a really old program called ts4np to remux it.   I don't know tvheadend or how mp2 is ending up muxed as ac3. 

I also don't know how if you can tell Kodi the stream it identfied as

2020-11-02 10:19:25.649 T:50832    INFO <general>: ffmpeg[0x21194a0e9a0X]:     Stream #0:1[0x1041](por): Audio: ac3 (AC-3 / 0x332D4341), 0 channels, fltp

is actually   Stream #0:0[0x1041]: Audio: mp2, 48000 Hz, stereo, s16p, 128 kb/s

Martin
Reply


Messages In This Thread
Audio stream none - by erbas - 2020-10-27, 03:57
RE: Audio stream none - by DarrenHill - 2020-10-27, 10:13
RE: Audio stream none - by noggin - 2020-10-27, 11:03
RE: Audio stream none - by erbas - 2020-10-27, 14:10
RE: Audio stream none - by black_eagle - 2020-10-27, 14:36
RE: Audio stream none - by erbas - 2020-10-27, 21:28
RE: Audio stream none - by noggin - 2020-10-28, 09:41
RE: Audio stream none - by erbas - 2020-11-02, 06:11
RE: Audio stream none - by erbas - 2020-11-02, 16:38
RE: Audio stream none - by emveepee - 2020-11-02, 17:26
RE: Audio stream none - by erbas - 2020-11-02, 17:36
RE: Audio stream none - by emveepee - 2020-11-02, 18:24
RE: Audio stream none - by noggin - 2020-11-02, 18:38
RE: Audio stream none - by erbas - 2020-11-02, 19:03


Logout Mark Read Team Forum Stats Members Help
Audio stream none0
This forum uses Lukasz Tkacz MyBB addons.