20 Nov 2019 - TVDB Scraper v3.2.0 is now available which reinstates scraping. TVDB are still in the process of fixing a number of bugs so there may still be further breakages. See this post. 2901570 (post)

  •   
  • 1
  • 4
  • 5
  • 6(current)
  • 7
  • 8
  • 60
  •   
XBNE - Metadata/artwork editor for the video database
#76
new version : V5.50
Add : Resizing Thumbs
Add : Import & Export excel file
Reply
#77
but can you add more scrapers?
I can scrape it within XBMC from the scrapers but not with XBNE

also maybe a tvshow scraper?
Reply
#78
For more scraper, i will see what i can do.
For TvShow, not for the moment.
Reply
#79
thanks Smile
cinefacts.de would be nice Tongue

btw, i definitely have some videos that i can manually find on imdb.com but i cannot find with xbne, is it possible to enter like the imdb id to get the video?

PS: thanks for all the hard work!
Maybe you should create some language files that others can edit to help you translate it in other languages...
The program is still partly in french even if I select english.
Reply
#80
Hello,
Can you give me titles of movies that is not found by XBNE ?
Reply
#81
well, love takes wing is found on themoviedb (without fanart and thumbs) and imdb (with fanarts and thumb) but not cine-passion.
victorias secret fashion show (2008) is found on imdb but not cine-passion.
videos like Planet Earth (which is a documentary series) are found on imdb.com but not on cine-passion.

btw, is there any way to use a fanart as thumb? (not extra thumb but the real thumb)
Reply
#82
do you need more information?
Reply
#83
Hello,
You're right, sorry, the scraper Cine-Passion only works for movie on AlloCine.fr
For ImDb scraper, i will see what i can do.
To copy a fanart on a thumb, save the fanart then load as thumb.
Reply
#84
New version : 5.53
Add - Black and blur detection in recovery of movie thumbs
Reply
#85
Hello,
New version 5.60.
With that, I think you have everything that XBMC can not do:
- Resizing Thumbnails and Fanarts. (One by one or several)
- Creating ExtraThumbs up to 9, since Fanart or movie extraction with black or blur images detection. (One by one or several)
- Complete Management videos files : Rename, move, create a single path, rename path. (One by one or several)
....
Reply
#86
New Version 5.63 :
-Add Export HTML list and / or Movies with choice of model (with HTML tags)
-Management Play Count and Last Played individually or in mass.
Reply
#87
New 5.71.
Added :
-Moving multiple video files
-Added automatic Play / Not Play in Genre/Title
Reply
#88
I'd like to bump my request regarding Matroska chapters to bookmarks. Currently XBMC supports MKV chapters, but provides no method of navigation besides jumping to the next chapter. There's no way to view the list of chapters by name and select one.

If the chapter list were converted to a bookmark list, this would be possible.

mediainfo (which has a library used in other metadata generators) can view chapter names, numbers, and locations. For example:

Code:
General
Complete name                    : 17 Again.DVD.mkv
Format                           : Matroska
File size                        : 1.00 GiB
Duration                         : 1h 41mn
Overall bit rate                 : 1 410 Kbps
Writing application              : HandBrake svn2943

Video
ID                               : 1
Format                           : AVC
Format/Info                      : Advanced Video Codec
Format profile                   : [email protected]
Format settings, CABAC           : Yes
Format settings, ReFrames        : 3 frames
Muxing mode                      : Container [email protected]
Codec ID                         : V_MPEG4/ISO/AVC
Duration                         : 1h 41mn
Bit rate                         : 1 222 Kbps
Nominal bit rate                 : 1 243 Kbps
Width                            : 720 pixels
Height                           : 352 pixels
Display aspect ratio             : 2.35:1
Frame rate                       : 23.976 fps
Resolution                       : 24 bits
Colorimetry                      : 4:2:0
Scan type                        : Progressive
Bits/(Pixel*Frame)               : 0.201
Stream size                      : 890 MiB (87%)
Writing library                  : x264 core 79 r1342 e8501ef
Encoding settings                : cabac=1 / ref=3 / deblock=1:0:0 / analyse=0x3:0x133 / me=umh / subme=9 / psy=1 / psy_rd=1.0:0.0 / mixed_ref=1 / me_range=16 / chroma_me=1 / trellis=0 / 8x8dct=1 / cqm=0 / deadzone=21,11 / chroma_qp_offset=-2 / threads=3 / nr=0 / decimate=1 / mbaff=0 / constrained_intra=0 / bframes=3 / b_pyramid=0 / b_adapt=2 / b_bias=0 / direct=1 / wpredb=1 / wpredp=2 / keyint=240 / keyint_min=24 / scenecut=40 / rc_lookahead=40 / rc=2pass / mbtree=1 / bitrate=1243 / ratetol=1.0 / qcomp=0.60 / qpmin=10 / qpmax=51 / qpstep=4 / cplxblur=20.0 / qblur=0.5 / ip_ratio=1.40 / aq=1:1.00

Audio
ID                               : 2
Format                           : Vorbis
Format settings, Floor           : 1
Codec ID                         : A_VORBIS
Duration                         : 1h 41mn
Bit rate mode                    : Constant
Bit rate                         : 160 Kbps
Channel(s)                       : 2 channels
Sampling rate                    : 48.0 KHz
Stream size                      : 117 MiB (11%)
Writing library                  : aoTuV Beta 5 (UTC 2006-10-24)
Language                         : English / English

Menu
00:00:00.000                     : Chapter  1
00:06:41.100                     : Chapter  2
00:10:04.754                     : Chapter  3
00:16:28.137                     : Chapter  4
00:18:22.251                     : Chapter  5
00:22:39.057                     : Chapter  6
00:25:41.907                     : Chapter  7
00:29:35.807                     : Chapter  8
00:33:26.237                     : Chapter  9
00:35:59.023                     : Chapter 10
00:40:14.645                     : Chapter 11
00:44:39.326                     : Chapter 12
00:49:20.107                     : Chapter 13
00:53:07.050                     : Chapter 14
00:58:33.042                     : Chapter 15
01:03:49.192                     : Chapter 16
01:07:34.867                     : Chapter 17
01:10:25.537                     : Chapter 18
01:16:14.770                     : Chapter 19
01:20:26.688                     : Chapter 20
01:26:46.017                     : Chapter 21
01:30:53.815                     : Chapter 22
01:34:42.877                     : Chapter 23
01:35:26.370                     : Chapter 24
01:41:52.089                     : Chapter 25

If it were possible to scan the file and create bookmarks based on the names and locations of chapter markers, it would be incredible. I have a script that make multi-chapter MKV out of home videos and this would make it possible to select specific scenes.

What do you think?
Reply
#89
Hello,
I will see what i can do this afternoon (in France).
XBNE also uses MediaInfo.
For my test, how to quickly build mkv chapters.
Reply
#90
New 5.72 :
BookMarks management :
-Editing / Image (recovery in the movie) / Import from a text file or in the mkv.
-Edit last playing position.

To test (especially the import mkv)
Reply
  •   
  • 1
  • 4
  • 5
  • 6(current)
  • 7
  • 8
  • 60
  •   
 
Thread Rating:
  • 6 Vote(s) - 5 Average



Logout Mark Read Team Forum Stats Members Help
XBNE - Metadata/artwork editor for the video database56