How to see that a movie won´t play on XBMC in XBOX?
#1
Hello,

I could not finalize my register in xbmc4xbox.

I did not use my XBOX for a long time but in the other day a movie didn´t play witch was rare when i heavy used it and now i am a little worried because i m going to offer the XBOX to a good friend of mine and send him some media once in a while and i don´t want that some media like movies do not play.

Now i am going to test each media eg movie that i burn in my PC in my XBMC in XBOX, but in the future i won´t be able to do that because i won´t have my XBOX anymore. There is some way one can seen in advance wich movies won´t play? a list for example? This way i could see the codecs previously (with media info) and compare with a list and see if it would play or no.
The movie that did not played was:

General
Complete name : D:\American(2010).R5.H264.ResourceRG by Dusty.mp4
Format : MPEG-4
Format profile : Base Media
Codec ID : isom
File size : 1.00 GiB
Duration : 1h 40mn
Overall bit rate : 1 424 Kbps
Movie name : The American(2010).R5.H264.ResourceRG by Dusty.mp4
Performer : Avidemux
Writing application : Lavf52.61.0

Video
ID : 1
Format : AVC
Format/Info : Advanced Video Codec
Format profile : [email protected]
Format settings, CABAC : Yes
Format settings, ReFrames : 4 frames
Codec ID : avc1
Codec ID/Info : Advanced Video Coding
Duration : 1h 40mn
Bit rate mode : Variable
Bit rate : 1 291 Kbps
Width : 720 pixels
Height : 400 pixels
Display aspect ratio : 16:9
Frame rate mode : Constant
Frame rate : 25.000 fps
Color space : YUV
Chroma subsampling : 4:2:0
Bit depth : 8 bits
Scan type : Progressive
Bits/(Pixel*Frame) : 0.179
Stream size : 928 MiB (91%)
Writing library : x264 core 98 r1649 20cbe10
Encoding settings : cabac=1 / ref=3 / deblock=1:-3:0 / analyse=0x3:0x113 / me=umh / subme=7 / psy=1 / psy_rd=1.00:0.00 / mixed_ref=1 / me_range=32 / chroma_me=1 / trellis=2 / 8x8dct=1 / cqm=2 / deadzone=21,11 / fast_pskip=1 / chroma_qp_offset=-2 / threads=9 / sliced_threads=0 / nr=0 / decimate=1 / interlaced=0 / constrained_intra=0 / bframes=4 / b_pyramid=2 / b_adapt=2 / b_bias=0 / direct=1 / weightb=1 / weightp=2 / keyint=250 / keyint_min=25 / scenecut=40 / intra_refresh=0 / rc_lookahead=40 / rc=2pass / mbtree=1 / bitrate=1291 / ratetol=1.0 / qcomp=0.60 / qpmin=10 / qpmax=51 / qpstep=4 / cplxblur=20.0 / qblur=0.5 / vbv_maxrate=31250 / vbv_bufsize=31250 / ip_ratio=1.40 / aq=1:1.00 / nal_hrd=none

Audio
ID : 2
Format : AAC
Format/Info : Advanced Audio Codec
Format version : Version 4
Format profile : LC
Format settings, SBR : No
Codec ID : 40
Duration : 1h 40mn
Bit rate mode : Variable
Bit rate : 128 Kbps
Channel(s) : 2 channels
Channel positions : Front: L R
Sampling rate : 48.0 KHz
Stream size : 92.1 MiB (9%)
#2
http://www.xbmc4xbox.org/forum/
#3
I finely could finalize my register with XBMC4XBOX, moderators can close this threat, thanks a lot elitegamer360.

I already played .MKV and MP4 with no problems except for some subtitles with these.

Bye
 
Thread Rating:
  • 0 Vote(s) - 0 Average



Logout Mark Read Team Forum Stats Members Help
How to see that a movie won´t play on XBMC in XBOX?00