Thread Closed
libstagefright - Experimental hardware video decoding builds
#39
TEST #2

Device: Minix Neo X5 (RockChip RK3066 + MALI 400)

File: Io Robot 3D.mkv

Stream #0:0: Video: h264 (High), yuv420p, 1920x1080, SAR 1:1 DAR 16:9, 23.98 fps, 23.98 tbr, 48003.07 tbn, 47.95 tbc (default)
Stream #0:1(ita): Audio: dts (DTS), 48000 Hz, 5.1(side), s16, 768 kb/s (default)

Result KO: BLACK screen. Audio for few seconds. After locked. Some seconds to exit. Unplayable.

Log: http://xbmclogs.com/show.php?id=28316
TEST #3

Device: Minix Neo X5 (RockChip RK3066 + MALI 400)

File: Cars Motori Ruggenti.mkv

Stream #0:0(eng): Video: h264 (High), yuv420p, 1920x800 [SAR 1:1 DAR 12:5], 23.98 fps, 23.98 tbr, 1k tbn, 47.95 tbc (default)
Stream #0:1(ita): Audio: ac3, 48000 Hz, 5.1(side), s16, 640 kb/s (default)

Result OK (...): Only some artifacts.

Log: http://xbmclogs.com/show.php?id=28319
  Thread Closed
 
Thread Rating:
  • 10 Vote(s) - 4.5 Average


Messages In This Thread
RE: libstagefright - Experimental hardware video decoding builds - by raffaelediana - 2013-01-16, 00:13
libstagefright - by mo123 - 2013-05-14, 14:29
RE: libstagefright - by Koying - 2013-05-14, 14:30
RE: libstagefright - by Maverick5269 - 2013-05-16, 23:04
RE: libstagefright - by matander - 2013-05-19, 18:26
RE: libstagefright - by FreeFrag - 2013-05-22, 13:02


Logout Mark Read Team Forum Stats Members Help
libstagefright - Experimental hardware video decoding builds4.510