libstagefright - Experimental hardware video decoding builds
Few logs for this hardware:
HDMI Dongle with Cortex A9 RK3066 1gb RAM, 4gb Flash
Video from here:
http://thepiratebay.se/torrent/5155837/H...les_(v1.7)
Video 1.
http://xbmclogs.com/show.php?id=1921
Picture is damage with slow FPS
Code:
General
ID                             : 1 (0x1)
Complete name                  : N:\03.split.5.ts
Format                         : MPEG-TS
File size                      : 192 MiB
Duration                       : 45s 657ms
Overall bit rate mode          : Variable
Overall bit rate               : 35.2 Mbps
Maximum Overall bit rate       : 35.5 Mbps

Video
ID                             : 4113 (0x1011)
Menu ID                        : 1 (0x1)
Format                         : VC-1
Format profile                 : [email protected]
Codec ID                       : 234
Duration                       : 44s 912ms
Bit rate                       : 31.4 Mbps
Width                          : 1 920 pixels
Height                         : 1 080 pixels
Display aspect ratio           : 16:9
Frame rate                     : 29.970 fps
Chroma subsampling             : 4:2:0
Bit depth                      : 8 bits
Scan type                      : Interlaced
Scan order                     : Top Field First
Compression mode               : Lossy
Bits/(Pixel*Frame)             : 0.505
Stream size                    : 168 MiB (88%)

Audio
ID                             : 4352 (0x1100)
Menu ID                        : 1 (0x1)
Format                         : DTS
Format/Info                    : Digital Theater Systems
Format profile                 : HRA / Core
Mode                           : 16
Format settings, Endianness    : Big
Muxing mode                    : Stream extension
Codec ID                       : 134
Duration                       : 45s 717ms
Bit rate mode                  : Constant
Bit rate                       : 2 046 Kbps / 1 509 Kbps
Channel(s)                     : 6 channels
Channel positions              : Front: L C R, Side: L R, LFE
Sampling rate                  : 48.0 KHz
Bit depth                      : 16 bits
Compression mode               : Lossy
Delay relative to video        : -57ms
Stream size                    : 11.2 MiB (6%)

Text
ID                             : 4608 (0x1200)
Menu ID                        : 1 (0x1)
Format                         : PGS
Codec ID                       : 144

Video 2
http://xbmclogs.com/show.php?id=1889
Slow FPS. Lines on picture
Code:
General
ID                             : 0 (0x0)
Complete name                  : N:\00019.m2ts
Format                         : BDAV
Format/Info                    : Blu-ray Video
File size                      : 116 MiB
Duration                       : 20s 520ms
Overall bit rate mode          : Variable
Overall bit rate               : 47.1 Mbps
Maximum Overall bit rate       : 48.0 Mbps

Video
ID                             : 4113 (0x1011)
Menu ID                        : 1 (0x1)
Format                         : MPEG Video
Format version                 : Version 2
Format profile                 : [email protected]
Format settings, BVOP          : Yes
Format settings, Matrix        : Default
Format settings, GOP           : M=3, N=15
Codec ID                       : 2
Duration                       : 20s 721ms
Bit rate                       : 40.6 Mbps
Maximum bit rate               : 40.0 Mbps
Width                          : 1 920 pixels
Height                         : 1 080 pixels
Display aspect ratio           : 16:9
Frame rate                     : 29.970 fps
Color space                    : YUV
Chroma subsampling             : 4:2:0
Bit depth                      : 8 bits
Scan type                      : Interlaced
Scan order                     : Top Field First
Compression mode               : Lossy
Bits/(Pixel*Frame)             : 0.653
Stream size                    : 100 MiB (87%)

Audio #1
ID                             : 4352 (0x1100)
Menu ID                        : 1 (0x1)
Format                         : PCM
Format settings, Endianness    : Big
Format settings, Sign          : Signed
Muxing mode                    : Blu-ray
Codec ID                       : 128
Duration                       : 20s 720ms
Bit rate mode                  : Constant
Bit rate                       : 2 304 Kbps
Channel(s)                     : 2 channels
Channel positions              : Front: L R
Sampling rate                  : 48.0 KHz
Bit depth                      : 24 bits
Stream size                    : 5.69 MiB (5%)

Audio #2
ID                             : 4353 (0x1101)
Menu ID                        : 1 (0x1)
Format                         : PCM
Format settings, Endianness    : Big
Format settings, Sign          : Signed
Muxing mode                    : Blu-ray
Codec ID                       : 128
Duration                       : 20s 720ms
Bit rate mode                  : Constant
Bit rate                       : 2 304 Kbps
Channel(s)                     : 2 channels
Channel positions              : Front: L R
Sampling rate                  : 48.0 KHz
Bit depth                      : 24 bits
Stream size                    : 5.69 MiB (5%)

Video 3
Work fine
Code:
General
Unique ID                      : 204319814633281670082764629978273508137 (0x99B6909ED1B6FFDB93F78CCF25636B29)
Complete name                  : N:\720p16rf-001.mkv
Format                         : Matroska
Format version                 : Version 2
File size                      : 10.5 MiB
Duration                       : 44s 95ms
Overall bit rate               : 1 990 Kbps
Encoded date                   : UTC 2009-05-14 19:20:11
Writing application            : mkvmerge v2.7.0 ('Do It Again') built on Apr 15 2009 00:27:10
Writing library                : libebml v0.7.7 + libmatroska v0.8.1
Attachment                     : Yes / Yes

Video
ID                             : 1
Format                         : AVC
Format/Info                    : Advanced Video Codec
Format profile                 : [email protected]
Format settings, CABAC         : Yes
Format settings, ReFrames      : 16 frames
Codec ID                       : V_MPEG4/ISO/AVC
Duration                       : 44s 86ms
Nominal bit rate               : 2 000 Kbps
Width                          : 1 280 pixels
Height                         : 720 pixels
Display aspect ratio           : 16:9
Frame rate mode                : Constant
Frame rate                     : 23.976 fps
Color space                    : YUV
Chroma subsampling             : 4:2:0
Bit depth                      : 8 bits
Scan type                      : Progressive
Bits/(Pixel*Frame)             : 0.091
Writing library                : x264 core 65 r1029M cb3c213
Encoding settings              : cabac=1 / ref=16 / deblock=1:-2:-2 / analyse=0x3:0x113 / me=umh / subme=9 / psy_rd=1.0:0.0 / mixed_ref=1 / me_range=32 / chroma_me=1 / trellis=2 / 8x8dct=1 / cqm=0 / deadzone=21,11 / chroma_qp_offset=-2 / threads=6 / nr=0 / decimate=1 / mbaff=0 / bframes=16 / b_pyramid=1 / b_adapt=2 / b_bias=0 / direct=3 / wpredb=1 / keyint=140 / keyint_min=1 / scenecut=40(pre) / rc=2pass / bitrate=2000 / ratetol=1.0 / qcomp=0.80 / qpmin=15 / qpmax=51 / qpstep=4 / cplxblur=20.0 / qblur=0.5 / ip_ratio=1.40 / pb_ratio=1.30 / aq=0
Default                        : Yes
Forced                         : No

Audio #1
ID                             : 2
Format                         : MPEG Audio
Format version                 : Version 1
Format profile                 : Layer 3
Mode                           : Joint stereo
Codec ID                       : A_MPEG/L3
Codec ID/Hint                  : MP3
Duration                       : 44s 95ms
Bit rate mode                  : Constant
Bit rate                       : 192 Kbps
Channel(s)                     : 2 channels
Sampling rate                  : 44.1 KHz
Compression mode               : Lossy
Stream size                    : 1.01 MiB (10%)
Title                          : Russian NARUTOfilm
Language                       : Russian
Default                        : Yes
Forced                         : No

Audio #2
ID                             : 3
Format                         : AAC
Format/Info                    : Advanced Audio Codec
Format profile                 : LC
Codec ID                       : A_AAC
Duration                       : 44s 95ms
Channel(s)                     : 2 channels
Channel positions              : Front: L R
Sampling rate                  : 48.0 KHz
Compression mode               : Lossy
Title                          : Original
Language                       : Japanese
Default                        : No
Forced                         : No

Video 4
http://xbmclogs.com/show.php?id=1891
Good picture quality. Slow FPS (10fps)
Code:
General
ID                             : 1 (0x1)
Complete name                  : N:\Avalon.split.34.m2ts
Format                         : BDAV
Format/Info                    : Blu-ray Video
File size                      : 235 MiB
Duration                       : 52s 480ms
Overall bit rate mode          : Variable
Overall bit rate               : 37.4 Mbps
Maximum Overall bit rate       : 35.5 Mbps

Video
ID                             : 4113 (0x1011)
Menu ID                        : 1 (0x1)
Format                         : AVC
Format/Info                    : Advanced Video Codec
Format profile                 : [email protected]
Format settings, CABAC         : Yes
Format settings, ReFrames      : 4 frames
Codec ID                       : 27
Duration                       : 52s 552ms
Bit rate mode                  : Variable
Bit rate                       : 35.3 Mbps
Maximum bit rate               : 38.0 Mbps
Width                          : 1 920 pixels
Height                         : 1 080 pixels
Display aspect ratio           : 16:9
Frame rate                     : 23.976 fps
Standard                       : NTSC
Color space                    : YUV
Chroma subsampling             : 4:2:0
Bit depth                      : 8 bits
Scan type                      : Progressive
Bits/(Pixel*Frame)             : 0.710
Stream size                    : 221 MiB (94%)
Color primaries                : BT.709
Transfer characteristics       : BT.709
Matrix coefficients            : BT.709

Audio
ID                             : 4352 (0x1100)
Menu ID                        : 1 (0x1)
Format                         : AC-3
Format/Info                    : Audio Coding 3
Mode extension                 : CM (complete main)
Format settings, Endianness    : Big
Muxing mode                    : Stream extension
Codec ID                       : 131
Duration                       : 52s 640ms
Bit rate mode                  : Constant
Bit rate                       : 640 Kbps
Channel(s)                     : 6 channels
Channel positions              : Front: L C R, Side: L R, LFE
Sampling rate                  : 48.0 KHz
Bit depth                      : 16 bits
Compression mode               : Lossy
Delay relative to video        : -98ms
Stream size                    : 4.02 MiB (2%)

Video 5
Work fine
Code:
General
Unique ID                      : 54816606533737725274285983388998414758 (0x293D4B5D9F1F787F812C96B83611B1A6)
Complete name                  : N:\Casino.21.mkv
Format                         : Matroska
Format version                 : Version 2
File size                      : 54.1 MiB
Duration                       : 30s 280ms
Overall bit rate               : 15.0 Mbps
Movie name                     : Avidemux
Writing application            : Lavf51.12.1
Writing library                : Lavf51.12.1

Video
ID                             : 1
Format                         : AVC
Format/Info                    : Advanced Video Codec
Format profile                 : [email protected]
Format settings, CABAC         : Yes
Format settings, ReFrames      : 4 frames
Codec ID                       : V_MPEG4/ISO/AVC
Duration                       : 30s 280ms
Bit rate                       : 14.2 Mbps
Width                          : 1 920 pixels
Height                         : 800 pixels
Display aspect ratio           : 2.40:1
Frame rate mode                : Constant
Frame rate                     : 23.976 fps
Color space                    : YUV
Chroma subsampling             : 4:2:0
Bit depth                      : 8 bits
Scan type                      : Progressive
Bits/(Pixel*Frame)             : 0.386
Stream size                    : 51.4 MiB (95%)
Writing library                : x264 core 60 r899M f8428ed
Encoding settings              : cabac=1 / ref=4 / deblock=1:0:0 / analyse=0x3:0x113 / me=hex / subme=5 / brdo=0 / mixed_ref=0 / me_range=16 / chroma_me=1 / trellis=0 / 8x8dct=1 / cqm=0 / deadzone=21,11 / chroma_qp_offset=0 / threads=3 / nr=0 / decimate=1 / mbaff=0 / bframes=2 / b_pyramid=0 / b_adapt=1 / b_bias=0 / direct=1 / wpredb=1 / bime=0 / keyint=250 / keyint_min=25 / scenecut=40(pre) / rc=cqp / qp=23 / ip_ratio=1,40 / pb_ratio=1,30 / aq=0
Default                        : Yes
Forced                         : No

Audio
ID                             : 2
Format                         : AC-3
Format/Info                    : Audio Coding 3
Mode extension                 : CM (complete main)
Format settings, Endianness    : Big
Codec ID                       : A_AC3
Duration                       : 30s 280ms
Bit rate mode                  : Constant
Bit rate                       : 448 Kbps
Channel(s)                     : 6 channels
Channel positions              : Front: L C R, Side: L R, LFE
Sampling rate                  : 48.0 KHz
Bit depth                      : 16 bits
Compression mode               : Lossy
Delay relative to video        : -41ms
Stream size                    : 1.62 MiB (3%)
Default                        : Yes
Forced                         : No

Video 6
Work fine
Code:
General
Unique ID                      : 86247517243603099298346027128625483255 (0x40E2AAE869E56DBE74816420B9A6CDF7)
Complete name                  : N:\Casino.32.mkv
Format                         : Matroska
Format version                 : Version 2
File size                      : 74.0 MiB
Duration                       : 30s 280ms
Overall bit rate               : 20.5 Mbps
Movie name                     : Avidemux
Writing application            : Lavf51.12.1
Writing library                : Lavf51.12.1

Video
ID                             : 1
Format                         : AVC
Format/Info                    : Advanced Video Codec
Format profile                 : [email protected]
Format settings, CABAC         : Yes
Format settings, ReFrames      : 4 frames
Codec ID                       : V_MPEG4/ISO/AVC
Bit rate                       : 19.6 Mbps
Width                          : 1 920 pixels
Height                         : 800 pixels
Display aspect ratio           : 2.40:1
Frame rate mode                : Variable
Original frame rate            : 23.976 fps
Color space                    : YUV
Chroma subsampling             : 4:2:0
Bit depth                      : 8 bits
Scan type                      : Progressive
Writing library                : x264 core 60 r899M f8428ed
Encoding settings              : cabac=1 / ref=4 / deblock=1:0:0 / analyse=0x3:0x113 / me=hex / subme=5 / brdo=0 / mixed_ref=0 / me_range=16 / chroma_me=1 / trellis=0 / 8x8dct=1 / cqm=0 / deadzone=21,11 / chroma_qp_offset=0 / threads=3 / nr=0 / decimate=1 / mbaff=0 / bframes=2 / b_pyramid=0 / b_adapt=1 / b_bias=0 / direct=1 / wpredb=1 / bime=0 / keyint=250 / keyint_min=25 / scenecut=40(pre) / rc=cqp / qp=20 / ip_ratio=1,40 / pb_ratio=1,30 / aq=0
Default                        : Yes
Forced                         : No

Audio
ID                             : 2
Format                         : AC-3
Format/Info                    : Audio Coding 3
Mode extension                 : CM (complete main)
Format settings, Endianness    : Big
Codec ID                       : A_AC3
Duration                       : 30s 280ms
Bit rate mode                  : Constant
Bit rate                       : 448 Kbps
Channel(s)                     : 6 channels
Channel positions              : Front: L C R, Side: L R, LFE
Sampling rate                  : 48.0 KHz
Bit depth                      : 16 bits
Compression mode               : Lossy
Delay relative to video        : -41ms
Stream size                    : 1.62 MiB (2%)
Default                        : Yes
Forced                         : No

Video 7
Work fine
Code:
General
Unique ID                      : 235243925475334618587494201527763503611 (0xB0FA54FFF8B214F38C1D93E9D45889FB)
Complete name                  : N:\Casino.42.mkv
Format                         : Matroska
Format version                 : Version 1
File size                      : 109 MiB
Duration                       : 30s 241ms
Overall bit rate               : 30.3 Mbps
Encoded date                   : UTC 2009-07-08 20:42:11
Writing application            : mkvmerge v2.3.0 ('Freak U') built on Sep  8 2008 18:32:16
Writing library                : libebml v0.7.7 + libmatroska v0.8.1

Video
ID                             : 1
Format                         : AVC
Format/Info                    : Advanced Video Codec
Format profile                 : [email protected]
Format settings, CABAC         : Yes
Format settings, ReFrames      : 2 frames
Codec ID                       : V_MPEG4/ISO/AVC
Duration                       : 30s 239ms
Bit rate                       : 29.3 Mbps
Nominal bit rate               : 39.0 Mbps
Width                          : 1 920 pixels
Height                         : 800 pixels
Display aspect ratio           : 2.40:1
Frame rate mode                : Constant
Frame rate                     : 23.976 fps
Color space                    : YUV
Chroma subsampling             : 4:2:0
Bit depth                      : 8 bits
Scan type                      : Progressive
Bits/(Pixel*Frame)             : 0.795
Stream size                    : 106 MiB (97%)
Writing library                : x264 core 60 r899M f8428ed
Encoding settings              : cabac=1 / ref=1 / deblock=1:0:0 / analyse=0x3:0x113 / me=hex / subme=5 / brdo=0 / mixed_ref=0 / me_range=16 / chroma_me=1 / trellis=0 / 8x8dct=1 / cqm=0 / deadzone=21,11 / chroma_qp_offset=0 / threads=3 / nr=0 / decimate=1 / mbaff=0 / bframes=2 / b_pyramid=0 / b_adapt=1 / b_bias=0 / direct=1 / wpredb=1 / bime=0 / keyint=250 / keyint_min=25 / scenecut=40(pre) / rc=abr / bitrate=39000 / ratetol=1,0 / rceq='blurCplx^(1-qComp)' / qcomp=1,00 / qpmin=10 / qpmax=51 / qpstep=4 / ip_ratio=1,40 / pb_ratio=1,30 / aq=2:1,00
Default                        : Yes
Forced                         : No

Audio
ID                             : 2
Format                         : AC-3
Format/Info                    : Audio Coding 3
Mode extension                 : CM (complete main)
Format settings, Endianness    : Big
Codec ID                       : A_AC3
Duration                       : 30s 241ms
Bit rate mode                  : Constant
Bit rate                       : 448 Kbps
Channel(s)                     : 6 channels
Channel positions              : Front: L C R, Side: L R, LFE
Sampling rate                  : 48.0 KHz
Bit depth                      : 16 bits
Compression mode               : Lossy
Delay relative to video        : 1ms
Stream size                    : 1.62 MiB (1%)
Title                          : Rus - AC3 448Kbps
Language                       : Russian
Default                        : Yes
Forced                         : No

Video 8
Slow FPS (18-24fps)
http://xbmclogs.com/show.php?id=1894
Code:
General
ID                             : 1 (0x1)
Complete name                  : N:\Casino.50.m2ts
Format                         : BDAV
Format/Info                    : Blu-ray Video
File size                      : 143 MiB
Duration                       : 30s 154ms
Overall bit rate mode          : Variable
Overall bit rate               : 39.7 Mbps
Maximum Overall bit rate       : 35.5 Mbps

Video
ID                             : 4113 (0x1011)
Menu ID                        : 1 (0x1)
Format                         : AVC
Format/Info                    : Advanced Video Codec
Format profile                 : [email protected]
Format settings, CABAC         : Yes
Format settings, ReFrames      : 4 frames
Codec ID                       : 27
Duration                       : 30s 239ms
Bit rate mode                  : Variable
Bit rate                       : 37.7 Mbps
Maximum bit rate               : 40.0 Mbps
Width                          : 1 920 pixels
Height                         : 800 pixels
Display aspect ratio           : 2.40:1
Frame rate                     : 23.976 fps
Color space                    : YUV
Chroma subsampling             : 4:2:0
Bit depth                      : 8 bits
Scan type                      : Progressive
Bits/(Pixel*Frame)             : 1.024
Stream size                    : 136 MiB (95%)
Writing library                : x264 core 60 r899M f8428ed
Encoding settings              : cabac=1 / ref=4 / deblock=1:0:0 / analyse=0x3:0x113 / me=hex / subme=5 / brdo=0 / mixed_ref=0 / me_range=16 / chroma_me=1 / trellis=0 / 8x8dct=1 / cqm=0 / deadzone=21,11 / chroma_qp_offset=0 / threads=3 / nr=0 / decimate=1 / mbaff=0 / bframes=2 / b_pyramid=0 / b_adapt=1 / b_bias=0 / direct=1 / wpredb=1 / bime=0 / keyint=250 / keyint_min=25 / scenecut=40(pre) / rc=cqp / qp=13 / ip_ratio=1,40 / pb_ratio=1,30 / aq=0

Audio
ID                             : 4352 (0x1100)
Menu ID                        : 1 (0x1)
Format                         : AC-3
Format/Info                    : Audio Coding 3
Mode extension                 : CM (complete main)
Format settings, Endianness    : Big
Codec ID                       : 129
Duration                       : 30s 208ms
Bit rate mode                  : Constant
Bit rate                       : 448 Kbps
Channel(s)                     : 6 channels
Channel positions              : Front: L C R, Side: L R, LFE
Sampling rate                  : 48.0 KHz
Bit depth                      : 16 bits
Compression mode               : Lossy
Stream size                    : 1.61 MiB (1%)

Video 9
http://xbmclogs.com/show.php?id=1896
Low FPS (18-24fps)
Code:
General
Unique ID                      : 7889764161085931452029369052477881220 (0x5EF8367F831FC3C1EE51A40EDC57B84)
Complete name                  : N:\Casino.50.mkv
Format                         : Matroska
Format version                 : Version 2
File size                      : 137 MiB
Duration                       : 30s 280ms
Overall bit rate               : 37.9 Mbps
Movie name                     : Avidemux
Writing application            : Lavf51.12.1
Writing library                : Lavf51.12.1

Video
ID                             : 1
Format                         : AVC
Format/Info                    : Advanced Video Codec
Format profile                 : [email protected]
Format settings, CABAC         : Yes
Format settings, ReFrames      : 4 frames
Codec ID                       : V_MPEG4/ISO/AVC
Bit rate                       : 36.7 Mbps
Width                          : 1 920 pixels
Height                         : 800 pixels
Display aspect ratio           : 2.40:1
Frame rate mode                : Variable
Original frame rate            : 23.976 fps
Color space                    : YUV
Chroma subsampling             : 4:2:0
Bit depth                      : 8 bits
Scan type                      : Progressive
Writing library                : x264 core 60 r899M f8428ed
Encoding settings              : cabac=1 / ref=4 / deblock=1:0:0 / analyse=0x3:0x113 / me=hex / subme=5 / brdo=0 / mixed_ref=0 / me_range=16 / chroma_me=1 / trellis=0 / 8x8dct=1 / cqm=0 / deadzone=21,11 / chroma_qp_offset=0 / threads=3 / nr=0 / decimate=1 / mbaff=0 / bframes=2 / b_pyramid=0 / b_adapt=1 / b_bias=0 / direct=1 / wpredb=1 / bime=0 / keyint=250 / keyint_min=25 / scenecut=40(pre) / rc=cqp / qp=13 / ip_ratio=1,40 / pb_ratio=1,30 / aq=0
Default                        : Yes
Forced                         : No

Audio
ID                             : 2
Format                         : AC-3
Format/Info                    : Audio Coding 3
Mode extension                 : CM (complete main)
Format settings, Endianness    : Big
Codec ID                       : A_AC3
Duration                       : 30s 280ms
Bit rate mode                  : Constant
Bit rate                       : 448 Kbps
Channel(s)                     : 6 channels
Channel positions              : Front: L C R, Side: L R, LFE
Sampling rate                  : 48.0 KHz
Bit depth                      : 16 bits
Compression mode               : Lossy
Delay relative to video        : -41ms
Stream size                    : 1.62 MiB (1%)
Default                        : Yes
Forced                         : No

Video 10
Work good
Code:
General
Unique ID                      : 230974184978964122130642553199829495258 (0xADC4028A52B3DDBBA20E468CC628ADDA)
Complete name                  : N:\Casino.Royale.BDrip.1080p.SPLIT-004.mkv
Format                         : Matroska
Format version                 : Version 1
File size                      : 92.4 MiB
Duration                       : 30s 251ms
Overall bit rate mode          : Variable
Overall bit rate               : 25.6 Mbps
Encoded date                   : UTC 2008-11-22 15:00:15
Writing application            : mkvmerge v2.4.0 ('Fumbling Towards Ecstasy') built on Oct 11 2008 20:13:15
Writing library                : libebml v0.7.7 + libmatroska v0.8.1

Video
ID                             : 1
Format                         : AVC
Format/Info                    : Advanced Video Codec
Format profile                 : [email protected]
Format settings, CABAC         : Yes
Format settings, ReFrames      : 5 frames
Codec ID                       : V_MPEG4/ISO/AVC
Duration                       : 30s 256ms
Width                          : 1 920 pixels
Height                         : 800 pixels
Display aspect ratio           : 2.40:1
Frame rate mode                : Constant
Frame rate                     : 23.962 fps
Original frame rate            : 23.976 fps
Color space                    : YUV
Chroma subsampling             : 4:2:0
Bit depth                      : 8 bits
Scan type                      : Progressive
Default                        : Yes
Forced                         : No

Audio #1
ID                             : 2
Format                         : AC-3
Format/Info                    : Audio Coding 3
Mode extension                 : CM (complete main)
Format settings, Endianness    : Big
Codec ID                       : A_AC3
Duration                       : 30s 251ms
Bit rate mode                  : Constant
Bit rate                       : 448 Kbps
Channel(s)                     : 6 channels
Channel positions              : Front: L C R, Side: L R, LFE
Sampling rate                  : 48.0 KHz
Bit depth                      : 16 bits
Compression mode               : Lossy
Delay relative to video        : 1ms
Stream size                    : 1.62 MiB (2%)
Title                          : Rus - AC3 448Kbps
Language                       : Russian
Default                        : Yes
Forced                         : No

Audio #2
ID                             : 3
Format                         : FLAC
Format/Info                    : Free Lossless Audio Codec
Codec ID                       : A_FLAC
Duration                       : 30s 251ms
Bit rate mode                  : Variable
Channel(s)                     : 6 channels
Sampling rate                  : 48.0 KHz
Bit depth                      : 16 bits
Delay relative to video        : 44ms
Title                          : Eng - FLAC 1515Mbps
Writing library                : libFLAC 1.2.0 (UTC 2007-07-15)
Language                       : English
Default                        : No
Forced                         : No

Video 11
http://xbmclogs.com/show.php?id=1901
Low FPS(10fps)
Code:
General
ID                             : 1 (0x1)
Complete name                  : N:\Deinterlace.m2ts
Format                         : BDAV
Format/Info                    : Blu-ray Video
File size                      : 7.30 MiB
Duration                       : 4s 589ms
Overall bit rate mode          : Variable
Overall bit rate               : 13.3 Mbps
Maximum Overall bit rate       : 18.0 Mbps

Video
ID                             : 4113 (0x1011)
Menu ID                        : 1 (0x1)
Format                         : AVC
Format/Info                    : Advanced Video Codec
Format profile                 : [email protected]
Format settings, CABAC         : Yes
Format settings, ReFrames      : 2 frames
Format settings, GOP           : M=3, N=12
Codec ID                       : 27
Duration                       : 4s 720ms
Bit rate mode                  : Variable
Bit rate                       : 12.4 Mbps
Maximum bit rate               : 16.8 Mbps
Width                          : 1 440 pixels
Height                         : 1 080 pixels
Display aspect ratio           : 16:9
Frame rate                     : 25.000 fps
Color space                    : YUV
Chroma subsampling             : 4:2:0
Bit depth                      : 8 bits
Scan type                      : Interlaced
Scan order                     : Top Field First
Bits/(Pixel*Frame)             : 0.319
Stream size                    : 6.98 MiB (96%)

Audio
ID                             : 4352 (0x1100)
Menu ID                        : 1 (0x1)
Format                         : AC-3
Format/Info                    : Audio Coding 3
Mode extension                 : CM (complete main)
Format settings, Endianness    : Big
Codec ID                       : 129
Duration                       : 4s 736ms
Bit rate mode                  : Constant
Bit rate                       : 384 Kbps
Channel(s)                     : 6 channels
Channel positions              : Front: L C R, Side: L R, LFE
Sampling rate                  : 48.0 KHz
Bit depth                      : 16 bits
Compression mode               : Lossy
Delay relative to video        : -16ms
Stream size                    : 222 KiB (3%)

Video 12
Low FPS (10fps)
http://xbmclogs.com/show.php?id=1905
Code:
General
ID                             : 1 (0x1)
Complete name                  : N:\H264_TrueHD.m2ts
Format                         : BDAV
Format/Info                    : Blu-ray Video
File size                      : 37.1 MiB
Duration                       : 8s 64ms
Overall bit rate mode          : Variable
Overall bit rate               : 37.5 Mbps
Maximum Overall bit rate       : 35.5 Mbps

Video
ID                             : 4113 (0x1011)
Menu ID                        : 1 (0x1)
Format                         : AVC
Format/Info                    : Advanced Video Codec
Format profile                 : [email protected]
Format settings, CABAC         : Yes
Format settings, ReFrames      : 4 frames
Codec ID                       : 27
Duration                       : 8s 258ms
Bit rate mode                  : Variable
Bit rate                       : 35.6 Mbps
Maximum bit rate               : 34.0 Mbps
Width                          : 1 920 pixels
Height                         : 1 080 pixels
Display aspect ratio           : 16:9
Frame rate                     : 23.976 fps
Standard                       : NTSC
Color space                    : YUV
Chroma subsampling             : 4:2:0
Bit depth                      : 8 bits
Scan type                      : Progressive
Bits/(Pixel*Frame)             : 0.716
Stream size                    : 35.1 MiB (94%)
Color primaries                : BT.709
Transfer characteristics       : BT.709
Matrix coefficients            : BT.709

Audio
ID                             : 4352 (0x1100)
Menu ID                        : 1 (0x1)
Format                         : AC-3
Format/Info                    : Audio Coding 3
Mode extension                 : CM (complete main)
Format settings, Endianness    : Big
Muxing mode                    : Stream extension
Codec ID                       : 131
Duration                       : 8s 192ms
Bit rate mode                  : Constant
Bit rate                       : 384 Kbps
Channel(s)                     : 6 channels
Channel positions              : Front: L C R, Side: L R, LFE
Sampling rate                  : 48.0 KHz
Bit depth                      : 16 bits
Compression mode               : Lossy
Delay relative to video        : -29ms
Stream size                    : 384 KiB (1%)

Video 13
Low FPS (8-10)
http://xbmclogs.com/show.php?id=1906
Code:
General
Unique ID                      : 252669262603146818545696960851879550900 (0xBE1654737F90CB15AAF43A883FC65FB4)
Complete name                  : N:\hns-fc-new-002.mkv
Format                         : Matroska
Format version                 : Version 1
File size                      : 7.48 MiB
Duration                       : 11s 234ms
Overall bit rate               : 5 586 Kbps
Movie name                     : -=HANSMER=-
Encoded date                   : UTC 2008-02-16 23:12:52
Writing application            : mkvmerge v2.1.0 ('Another Place To Fall') built on Aug 19 2007 13:40:07
Writing library                : libebml v0.7.7 + libmatroska v0.8.1

Video
ID                             : 1
Format                         : AVC
Format/Info                    : Advanced Video Codec
Format profile                 : [email protected]
Format settings, CABAC         : Yes
Format settings, ReFrames      : 16 frames
Codec ID                       : V_MPEG4/ISO/AVC
Duration                       : 11s 220ms
Bit rate                       : 5 027 Kbps
Width                          : 1 920 pixels
Height                         : 1 080 pixels
Display aspect ratio           : 16:9
Frame rate mode                : Constant
Frame rate                     : 23.976 fps
Color space                    : YUV
Chroma subsampling             : 4:2:0
Bit depth                      : 8 bits
Scan type                      : Progressive
Bits/(Pixel*Frame)             : 0.101
Stream size                    : 6.72 MiB (90%)
Title                          : Fight.Club.1080p.HDTV.x264
Language                       : English
Default                        : Yes
Forced                         : No

Audio
ID                             : 2
Format                         : AC-3
Format/Info                    : Audio Coding 3
Mode extension                 : CM (complete main)
Format settings, Endianness    : Big
Codec ID                       : A_AC3
Duration                       : 11s 234ms
Bit rate mode                  : Constant
Bit rate                       : 448 Kbps
Channel(s)                     : 6 channels
Channel positions              : Front: L C R, Side: L R, LFE
Sampling rate                  : 48.0 KHz
Bit depth                      : 16 bits
Compression mode               : Lossy
Delay relative to video        : 2ms
Stream size                    : 614 KiB (8%)
Title                          : AC3, 6ch 448 kbps
Language                       : English
Default                        : Yes
Forced                         : No

Video 14
http://xbmclogs.com/show.php?id=1907
Low FPS (10-14fps)
Code:
General
Unique ID                      : 251536001131757557771204856671400384866 (0xBD3C1258C68A4774BF133C0739FC5962)
Complete name                  : N:\Satoyama.II.Japan.Secret.Water.Garden.1080p.rus.-002.mkv
Format                         : Matroska
Format version                 : Version 1
File size                      : 26.8 MiB
Duration                       : 16s 853ms
Overall bit rate               : 13.3 Mbps
Encoded date                   : UTC 2008-11-03 17:21:28
Writing application            : mkvmerge v2.3.0 ('Freak U') built on Sep  8 2008 18:32:16
Writing library                : libebml v0.7.7 + libmatroska v0.8.1

Video
ID                             : 1
Format                         : AVC
Format/Info                    : Advanced Video Codec
Format profile                 : [email protected]
Format settings, CABAC         : Yes
Format settings, ReFrames      : 4 frames
Codec ID                       : V_MPEG4/ISO/AVC
Duration                       : 16s 850ms
Bit rate                       : 12.6 Mbps
Width                          : 1 920 pixels
Height                         : 1 072 pixels
Display aspect ratio           : 16:9
Frame rate mode                : Constant
Frame rate                     : 29.970 fps
Color space                    : YUV
Chroma subsampling             : 4:2:0
Bit depth                      : 8 bits
Scan type                      : Progressive
Bits/(Pixel*Frame)             : 0.205
Stream size                    : 25.4 MiB (95%)
Title                          : SATOYAMA 1080P HDBRiSe
Language                       : English
Default                        : Yes
Forced                         : No

Audio
ID                             : 2
Format                         : AC-3
Format/Info                    : Audio Coding 3
Mode extension                 : CM (complete main)
Format settings, Endianness    : Big
Codec ID                       : A_AC3
Duration                       : 16s 853ms
Bit rate mode                  : Constant
Bit rate                       : 448 Kbps
Channel(s)                     : 2 channels
Channel positions              : Front: L R
Sampling rate                  : 48.0 KHz
Bit depth                      : 16 bits
Compression mode               : Lossy
Delay relative to video        : 21ms
Stream size                    : 922 KiB (3%)
Title                          : DD 2.0 448 Kbps
Language                       : Russian
Default                        : Yes
Forced                         : No


Messages In This Thread
RE: libstagefright - Experimental hardware video decoding builds - by raxer - 2013-03-03, 18:42
libstagefright - by mo123 - 2013-05-14, 14:29
RE: libstagefright - by Koying - 2013-05-14, 14:30
RE: libstagefright - by Maverick5269 - 2013-05-16, 23:04
RE: libstagefright - by matander - 2013-05-19, 18:26
RE: libstagefright - by FreeFrag - 2013-05-22, 13:02


Logout Mark Read Team Forum Stats Members Help
libstagefright - Experimental hardware video decoding builds10
This forum uses Lukasz Tkacz MyBB addons.