Thread Closed
libstagefright - Experimental hardware video decoding builds
Video 15
Work good
Code:
General
Unique ID                      : 230836553823068902466046581223030395153 (0xADA980CCE95413BC927B2E8E1BB61111)
Complete name                  : N:\TheBankJob-sample-16rf.mkv
Format                         : Matroska
Format version                 : Version 2
File size                      : 85.4 MiB
Duration                       : 1mn 1s
Overall bit rate               : 11.6 Mbps
Movie name                     : -=HANSMER=- (HQ-Films.ws)
Encoded date                   : UTC 2009-10-14 17:22:43
Writing application            : mkvmerge v2.9.8 ('C'est le bon') built on Aug 13 2009 12:49:06
Writing library                : libebml v0.7.7 + libmatroska v0.8.1
Attachment                     : Yes / Yes / Yes

Video
ID                             : 1
Format                         : AVC
Format/Info                    : Advanced Video Codec
Format profile                 : [email protected]
Format settings, CABAC         : Yes
Format settings, ReFrames      : 16 frames
Codec ID                       : V_MPEG4/ISO/AVC
Duration                       : 1mn 1s
Bit rate                       : 8 261 Kbps
Width                          : 1 920 pixels
Height                         : 816 pixels
Display aspect ratio           : 2.35:1
Frame rate mode                : Constant
Frame rate                     : 23.976 fps
Color space                    : YUV
Chroma subsampling             : 4:2:0
Bit depth                      : 8 bits
Scan type                      : Progressive
Bits/(Pixel*Frame)             : 0.220
Stream size                    : 60.9 MiB (71%)
Title                          : The.Bank.Job.2008.1080p.BluRay.DTS.x264-ESiR
Language                       : English
Default                        : Yes
Forced                         : No

Audio #1
ID                             : 2
Format                         : DTS
Format/Info                    : Digital Theater Systems
Mode                           : 16
Format settings, Endianness    : Big
Codec ID                       : A_DTS
Duration                       : 1mn 1s
Bit rate mode                  : Constant
Bit rate                       : 1 510 Kbps
Channel(s)                     : 6 channels
Channel positions              : Front: L C R, Side: L R, LFE
Sampling rate                  : 48.0 KHz
Bit depth                      : 24 bits
Compression mode               : Lossy
Delay relative to video        : 49ms
Stream size                    : 11.1 MiB (13%)
Language                       : Russian
Default                        : Yes
Forced                         : No

Audio #2
ID                             : 3
Format                         : DTS
Format/Info                    : Digital Theater Systems
Mode                           : 16
Format settings, Endianness    : Big
Codec ID                       : A_DTS
Duration                       : 1mn 1s
Bit rate mode                  : Constant
Bit rate                       : 1 509 Kbps
Channel(s)                     : 6 channels
Channel positions              : Front: L C R, Side: L R, LFE
Sampling rate                  : 48.0 KHz
Bit depth                      : 24 bits
Compression mode               : Lossy
Delay relative to video        : 49ms
Stream size                    : 11.1 MiB (13%)
Language                       : English
Default                        : No
Forced                         : No

Audio #3
ID                             : 4
Format                         : Vorbis
Format settings, Floor         : 1
Codec ID                       : A_VORBIS
Duration                       : 1mn 1s
Bit rate mode                  : Constant
Bit rate                       : 64.0 Kbps
Minimum bit rate               : 64.0 Kbps
Channel(s)                     : 2 channels
Sampling rate                  : 48.0 KHz
Compression mode               : Lossy
Delay relative to video        : 1ms
Stream size                    : 483 KiB (1%)
Title                          : Commentary
Writing library                : libVorbis 1.1.1/1.1.2 (UTC 2005-03-04)
Language                       : English
Default                        : No
Forced                         : No

Text #1
ID                             : 5
Format                         : UTF-8
Codec ID                       : S_TEXT/UTF8
Codec ID/Info                  : UTF-8 Plain Text
Language                       : Russian
Default                        : Yes
Forced                         : No

Text #2
ID                             : 6
Format                         : ASS
Codec ID                       : S_TEXT/ASS
Codec ID/Info                  : Advanced Sub Station Alpha
Compression mode               : Lossless
Language                       : English
Default                        : No
Forced                         : No

Text #3
ID                             : 7
Format                         : ASS
Codec ID                       : S_TEXT/ASS
Codec ID/Info                  : Advanced Sub Station Alpha
Compression mode               : Lossless
Language                       : Bulgarian
Default                        : No
Forced                         : No

Text #4
ID                             : 8
Format                         : ASS
Codec ID                       : S_TEXT/ASS
Codec ID/Info                  : Advanced Sub Station Alpha
Compression mode               : Lossless
Language                       : Czech
Default                        : No
Forced                         : No

Text #5
ID                             : 9
Format                         : ASS
Codec ID                       : S_TEXT/ASS
Codec ID/Info                  : Advanced Sub Station Alpha
Compression mode               : Lossless
Language                       : Finnish
Default                        : No
Forced                         : No

Text #6
ID                             : 10
Format                         : ASS
Codec ID                       : S_TEXT/ASS
Codec ID/Info                  : Advanced Sub Station Alpha
Compression mode               : Lossless
Language                       : Hungarian
Default                        : No
Forced                         : No

Text #7
ID                             : 11
Format                         : ASS
Codec ID                       : S_TEXT/ASS
Codec ID/Info                  : Advanced Sub Station Alpha
Compression mode               : Lossless
Language                       : Portuguese
Default                        : No
Forced                         : No

Text #8
ID                             : 12
Format                         : ASS
Codec ID                       : S_TEXT/ASS
Codec ID/Info                  : Advanced Sub Station Alpha
Compression mode               : Lossless
Language                       : Romanian
Default                        : No
Forced                         : No

Text #9
ID                             : 13
Format                         : ASS
Codec ID                       : S_TEXT/ASS
Codec ID/Info                  : Advanced Sub Station Alpha
Compression mode               : Lossless
Language                       : Swedish
Default                        : No
Forced                         : No

Video 16
Low FPS (10fps)
http://xbmclogs.com/show.php?id=1909
Code:
General
Unique ID                      : 245093269648001364448607399826404087371 (0xB8633F28EDFA277DAE7F6DDA24F3164B)
Complete name                  : N:\Transporter 3.2008.BD.Remux.1080p.h264.Rus.Eng.Commentary-002.mkv
Format                         : Matroska
Format version                 : Version 1
File size                      : 175 MiB
Duration                       : 1mn 1s
Overall bit rate mode          : Variable
Overall bit rate               : 23.8 Mbps
Encoded date                   : UTC 2009-07-09 18:39:19
Writing application            : mkvmerge v2.3.0 ('Freak U') built on Sep  8 2008 18:32:16
Writing library                : libebml v0.7.7 + libmatroska v0.8.1

Video
ID                             : 1
Format                         : AVC
Format/Info                    : Advanced Video Codec
Format profile                 : [email protected]
Format settings, CABAC         : Yes
Format settings, ReFrames      : 4 frames
Format settings, GOP           : M=3, N=12
Muxing mode                    : Container [email protected]
Codec ID                       : V_MPEG4/ISO/AVC
Duration                       : 1mn 1s
Bit rate mode                  : Variable
Maximum bit rate               : 37.0 Mbps
Width                          : 1 920 pixels
Height                         : 1 080 pixels
Display aspect ratio           : 16:9
Frame rate mode                : Constant
Frame rate                     : 23.976 fps
Color space                    : YUV
Chroma subsampling             : 4:2:0
Bit depth                      : 8 bits
Scan type                      : Progressive
Language                       : English
Default                        : Yes
Forced                         : No
Color primaries                : BT.709
Transfer characteristics       : BT.709
Matrix coefficients            : BT.709

Audio #1
ID                             : 2
Format                         : DTS
Format/Info                    : Digital Theater Systems
Mode                           : 16
Format settings, Endianness    : Big
Codec ID                       : A_DTS
Duration                       : 1mn 1s
Bit rate mode                  : Constant
Bit rate                       : 755 Kbps
Channel(s)                     : 6 channels
Channel positions              : Front: L C R, Side: L R, LFE
Sampling rate                  : 48.0 KHz
Bit depth                      : 24 bits
Compression mode               : Lossy
Delay relative to video        : 49ms
Stream size                    : 5.56 MiB (3%)
Title                          : DTS 5.1 768 kbps
Language                       : Russian
Default                        : Yes
Forced                         : No

Audio #2
ID                             : 3
Format                         : DTS
Format/Info                    : Digital Theater Systems
Format profile                 : MA / Core
Mode                           : 16
Format settings, Endianness    : Big
Codec ID                       : A_DTS
Duration                       : 1mn 1s
Bit rate mode                  : Variable
Bit rate                       : Unknown / 1 509 Kbps
Channel(s)                     : 8 channels / 6 channels
Channel positions              : Front: L C R, Side: L R, Back: L R, LFE / Front: L C R, Side: L R, LFE
Sampling rate                  : 48.0 KHz
Bit depth                      : 24 bits
Compression mode               : Lossless / Lossy
Delay relative to video        : 49ms
Title                          : DTS-HD Master Audio 7.1 5254 kbps Lossless
Language                       : English
Default                        : No
Forced                         : No

Audio #3
ID                             : 4
Format                         : AC-3
Format/Info                    : Audio Coding 3
Format profile                 : Dolby Digital
Mode extension                 : CM (complete main)
Format settings, Endianness    : Big
Codec ID                       : A_AC3
Duration                       : 1mn 1s
Bit rate mode                  : Constant
Bit rate                       : 224 Kbps
Channel(s)                     : 2 channels
Channel positions              : Front: L R
Sampling rate                  : 48.0 KHz
Bit depth                      : 16 bits
Compression mode               : Lossy
Delay relative to video        : 17ms
Stream size                    : 1.65 MiB (1%)
Title                          : Commentary by Director AC3 2.0 224 kbps
Language                       : English
Default                        : No
Forced                         : No

Text #1
ID                             : 5
Format                         : UTF-8
Codec ID                       : S_TEXT/UTF8
Codec ID/Info                  : UTF-8 Plain Text
Language                       : Russian
Default                        : Yes
Forced                         : No

Text #2
ID                             : 6
Format                         : UTF-8
Codec ID                       : S_TEXT/UTF8
Codec ID/Info                  : UTF-8 Plain Text
Language                       : English
Default                        : No
Forced                         : No

Video 17
http://xbmclogs.com/show.php?id=1911
Low FPS (14-24fps)
Code:
General
Unique ID                      : 228931161525438452405230222651698026129 (0xAC3A89B507304CF3A844C1468F699691)
Complete name                  : N:\twin.peaks.s01e01.sample-007.mkv
Format                         : Matroska
Format version                 : Version 1
File size                      : 20.5 MiB
Duration                       : 1mn 3s
Overall bit rate               : 2 728 Kbps
Movie name                     : Twin Peaksc Season 1 Episode 1 / Traces to Nowhere
Encoded date                   : UTC 2009-01-23 16:44:49
Writing application            : mkvmerge v2.4.1 ('Use Me') built on Dec  5 2008 18:30:05
Writing library                : libebml v0.7.7 + libmatroska v0.8.1

Video
ID                             : 1
Format                         : AVC
Format/Info                    : Advanced Video Codec
Format profile                 : [email protected]
Format settings, CABAC         : Yes
Format settings, ReFrames      : 6 frames
Codec ID                       : V_MPEG4/ISO/AVC
Duration                       : 1mn 3s
Width                          : 720 pixels
Height                         : 572 pixels
Display aspect ratio           : 1.373
Original display aspect ratio  : 5:4
Frame rate mode                : Constant
Frame rate                     : 25.000 fps
Color space                    : YUV
Chroma subsampling             : 4:2:0
Bit depth                      : 8 bits
Scan type                      : Progressive
Title                          : x264c 720x572 (2160c1573) 25.00fps
Language                       : English
Default                        : Yes
Forced                         : No

Audio #1
ID                             : 2
Format                         : AAC
Format/Info                    : Advanced Audio Codec
Format profile                 : LC
Codec ID                       : A_AAC
Duration                       : 1mn 3s
Channel(s)                     : 6 channels
Channel positions              : Front: L C R, Side: L R, LFE
Sampling rate                  : 48.0 KHz
Compression mode               : Lossy
Delay relative to video        : 3ms
Title                          : Serbin AAC-LC 6Ch 48KHz ~320Kbps
Language                       : Russian
Default                        : Yes
Forced                         : No

Audio #2
ID                             : 3
Format                         : AAC
Format/Info                    : Advanced Audio Codec
Format profile                 : LC
Codec ID                       : A_AAC
Duration                       : 1mn 3s
Channel(s)                     : 2 channels
Channel positions              : Front: L R
Sampling rate                  : 48.0 KHz
Compression mode               : Lossy
Delay relative to video        : 3ms
Title                          : Zhivov AAC-LC 2Ch 48KHz ~111Kbps
Language                       : Russian
Default                        : No
Forced                         : No

Audio #3
ID                             : 4
Format                         : AAC
Format/Info                    : Advanced Audio Codec
Format profile                 : LC
Codec ID                       : A_AAC
Duration                       : 1mn 3s
Channel(s)                     : 2 channels
Channel positions              : Front: L R
Sampling rate                  : 48.0 KHz
Compression mode               : Lossy
Delay relative to video        : 3ms
Title                          : ORT AAC-LC 2Ch 48KHz ~123Kbps
Language                       : Russian
Default                        : No
Forced                         : No

Audio #4
ID                             : 5
Format                         : AAC
Format/Info                    : Advanced Audio Codec
Format profile                 : LC
Codec ID                       : A_AAC
Duration                       : 1mn 3s
Channel(s)                     : 6 channels
Channel positions              : Front: L C R, Side: L R, LFE
Sampling rate                  : 48.0 KHz
Compression mode               : Lossy
Delay relative to video        : 3ms
Title                          : AAC-LC 6Ch 48KHz ~285Kbps
Language                       : English
Default                        : No
Forced                         : No

Audio #5
ID                             : 6
Format                         : AAC
Format/Info                    : Advanced Audio Codec
Format profile                 : HE-AAC / LC
Codec ID                       : A_AAC
Duration                       : 1mn 3s
Channel(s)                     : 2 channels
Channel positions              : Front: L R
Sampling rate                  : 48.0 KHz / 24.0 KHz
Compression mode               : Lossy
Delay relative to video        : 2ms
Title                          : Comments AAC-HE ~52Kbps
Language                       : English
Default                        : No
Forced                         : No

Text #1
ID                             : 7
Format                         : UTF-8
Codec ID                       : S_TEXT/UTF8
Codec ID/Info                  : UTF-8 Plain Text
Title                          : Kinomania
Language                       : Russian
Default                        : No
Forced                         : No

Text #2
ID                             : 8
Format                         : UTF-8
Codec ID                       : S_TEXT/UTF8
Codec ID/Info                  : UTF-8 Plain Text
Title                          : Oboroten' BOB
Language                       : Russian
Default                        : No
Forced                         : No

Text #3
ID                             : 9
Format                         : UTF-8
Codec ID                       : S_TEXT/UTF8
Codec ID/Info                  : UTF-8 Plain Text
Title                          : English
Language                       : English
Default                        : No
Forced                         : No

Menu
00:00:00.000                   : en:Traces to Nowhere

Video 18
http://xbmclogs.com/show.php?id=1912
Low FPS (10fps)
Code:
General
Unique ID                      : 183311257635625592003146837089967376294 (0x89E876CA2B96A616B5753635BC8787A6)
Complete name                  : N:\VC-1_Sub.mkv
Format                         : Matroska
Format version                 : Version 1
File size                      : 37.1 MiB
Duration                       : 16s 406ms
Overall bit rate               : 19.0 Mbps
Encoded date                   : UTC 2008-02-29 21:02:15
Writing application            : mkvmerge v2.1.0 ('Another Place To Fall') built on Aug 19 2007 13:40:07
Writing library                : libebml v0.7.7 + libmatroska v0.8.1

Video
ID                             : 1
Format                         : VC-1
Format profile                 : [email protected]
Codec ID                       : V_MS/VFW/FOURCC / WVC1
Codec ID/Hint                  : Microsoft
Duration                       : 16s 391ms
Bit rate                       : 17.7 Mbps
Width                          : 1 920 pixels
Height                         : 1 080 pixels
Display aspect ratio           : 16:9
Frame rate mode                : Constant
Frame rate                     : 23.976 fps
Original frame rate            : 29.970 fps
Chroma subsampling             : 4:2:0
Bit depth                      : 8 bits
Scan type                      : Progressive
Scan order                     : Top Field First
Compression mode               : Lossy
Bits/(Pixel*Frame)             : 0.356
Stream size                    : 34.6 MiB (93%)
Language                       : English
Default                        : Yes
Forced                         : No

Audio #1
ID                             : 2
Format                         : AC-3
Format/Info                    : Audio Coding 3
Mode extension                 : CM (complete main)
Format settings, Endianness    : Big
Codec ID                       : A_AC3
Duration                       : 16s 406ms
Bit rate mode                  : Constant
Bit rate                       : 448 Kbps
Channel(s)                     : 6 channels
Channel positions              : Front: L C R, Side: L R, LFE
Sampling rate                  : 48.0 KHz
Bit depth                      : 16 bits
Compression mode               : Lossy
Delay relative to video        : 28ms
Stream size                    : 897 KiB (2%)
Title                          : AC3 5.1 448 kbps
Language                       : Russian
Default                        : Yes
Forced                         : No

Audio #2
ID                             : 3
Format                         : AC-3
Format/Info                    : Audio Coding 3
Mode extension                 : CM (complete main)
Format settings, Endianness    : Big
Codec ID                       : A_AC3
Duration                       : 16s 406ms
Bit rate mode                  : Constant
Bit rate                       : 448 Kbps
Channel(s)                     : 6 channels
Channel positions              : Front: L C R, Side: L R, LFE
Sampling rate                  : 48.0 KHz
Bit depth                      : 16 bits
Compression mode               : Lossy
Delay relative to video        : 28ms
Stream size                    : 897 KiB (2%)
Title                          : AC3 5.1 448 kbps
Language                       : English
Default                        : No
Forced                         : No

Text #1
ID                             : 4
Format                         : UTF-8
Codec ID                       : S_TEXT/UTF8
Codec ID/Info                  : UTF-8 Plain Text
Language                       : Russian
Default                        : Yes
Forced                         : No

Text #2
ID                             : 5
Format                         : ASS
Codec ID                       : S_TEXT/ASS
Codec ID/Info                  : Advanced Sub Station Alpha
Compression mode               : Lossless
Language                       : English
Default                        : No
Forced                         : No

That's all.
  Thread Closed
 
Thread Rating:
  • 10 Vote(s) - 4.5 Average


Messages In This Thread
RE: libstagefright - Experimental hardware video decoding builds - by raxer - 2013-03-03, 18:55
libstagefright - by mo123 - 2013-05-14, 14:29
RE: libstagefright - by Koying - 2013-05-14, 14:30
RE: libstagefright - by Maverick5269 - 2013-05-16, 23:04
RE: libstagefright - by matander - 2013-05-19, 18:26
RE: libstagefright - by FreeFrag - 2013-05-22, 13:02


Logout Mark Read Team Forum Stats Members Help
libstagefright - Experimental hardware video decoding builds4.510
This forum uses Lukasz Tkacz MyBB addons.