OpenELEC Testbuilds for RaspberryPi Part 2
Guys,

am i supposed to be able to play m4v videos?
I just get the spinner, which after a while stops spinning and the systems freezes.
I have only one m4v file in my library, so I cannot tell if it is file specific, anyway this is the output of mediainfo:

Code:
General
Complete name                            : /mnt/downloads/MOVIES/Star Wars_ Episode I - The Phantom Menace (1999) 720p (techrod108)/Star Wars_ Episode I - The Phantom Menace (HD).m4v
Format                                   : MPEG-4
Format profile                           : Base Media / Version 2
Codec ID                                 : mp42
File size                                : 2.53 GiB
Duration                                 : 2h 16mn
Overall bit rate mode                    : Variable
Overall bit rate                         : 2 657 Kbps
Movie name                               : Star Wars: Episode I - The Phantom Menace
Performer                                : George Lucas
Genre                                    : Sci-Fi & Fantasy
Recorded date                            : UTC 1999-05-19 07:00:00
Encoded date                             : UTC 2012-06-04 03:08:37
Tagged date                              : UTC 2012-07-01 18:08:51
Writing application                      : techrod108
Copyright                                : 2011 Lucasfilm Ltd. All Rights Reserved.
Cover                                    : Yes
sonm                                     : Star Wars 1
desc                                     : Just as a special young boy is discovered, the evil Sith resurface. (with two audio commentaries)
ldes                                     : Two Jedi Knights escape a hostile blockade to find allies and come across a young boy who may bring balance to the Force, but the long dormant Sith resurface to reclaim their old glory. (with two audio commentaries)
hdvd                                     : 1
stik                                     : 9
rtng                                     : 0
cnID                                     : 400071691
atID                                     : 272778837
geID                                     : 4413
iTunEXTC                                 : mpaa|PG|200|
iTunMOVI                                 : <?xml version="1.0" encoding="UTF-8"?> / <!DOCTYPE plist PUBLIC "-//Apple//DTD PLIST 1.0//EN" "http://www.apple.com/DTDs/PropertyList-1.0.dtd"> / <plist version="1.0"> / <dict> /     <key>cast</key> /     <array> /         <dict> /             <key>name</key> /             <string>Liam Neeson</string> /         </dict> /         <dict> /             <key>name</key> /             <string>Ewan McGregor</string> /         </dict> /         <dict> /             <key>name</key> /             <string>Natalie Portman</string> /         </dict> /         <dict> /             <key>name</key> /             <string>Jake Lloyd</string> /         </dict> /         <dict> /             <key>name</key> /             <string>Ian McDiarmid</string> /         </dict> /         <dict> /             <key>name</key> /             <string>Pernilla August</string> /         </dict> /         <dict> /             <key>name</key> /             <string>Ahmed Best</string> /         </dict> /         <dict> /             <key>name</key> /             <string>Ray Park</string> /         </dict> /         <dict> /             <key>name</key> /             <string>Anthony Daniels</string> /         </dict> /         <dict> /             <key>name</key> /             <string>Kenny Baker</string> /         </dict> /         <dict> /             <key>name</key> /             <string>Frank Oz</string> /         </dict> /     </array> /     <key>directors</key> /     <array> /         <dict> /             <key>name</key> /             <string>George Lucas</string> /         </dict> /     </array> /     <key>screenwriters</key> /     <array> /         <dict> /             <key>name</key> /             <string>George Lucas</string> /         </dict> /     </array> /     <key>studio</key> /     <string>Lucasfilm</string> / </dict> / </plist>

Video #1
ID                                       : 1
Format                                   : AVC
Format/Info                              : Advanced Video Codec
Format profile                           : [email protected]
Format settings, CABAC                   : No
Format settings, ReFrames                : 2 frames
Codec ID                                 : avc1
Codec ID/Info                            : Advanced Video Coding
Duration                                 : 2h 16mn
Bit rate mode                            : Variable
Bit rate                                 : 1 895 Kbps
Width                                    : 1 280 pixels
Height                                   : 544 pixels
Display aspect ratio                     : 2.35:1
Frame rate mode                          : Variable
Frame rate                               : 23.976 fps
Minimum frame rate                       : 23.974 fps
Maximum frame rate                       : 23.981 fps
Color space                              : YUV
Chroma subsampling                       : 4:2:0
Bit depth                                : 8 bits
Scan type                                : Progressive
Bits/(Pixel*Frame)                       : 0.114
Stream size                              : 1.80 GiB (71%)
Writing library                          : x264 core 125
Encoding settings                        : cabac=0 / ref=2 / deblock=1:0:0 / analyse=0x3:0x113 / me=umh / subme=10 / psy=1 / psy_rd=1.00:0.00 / mixed_ref=1 / me_range=32 / chroma_me=1 / trellis=2 / 8x8dct=1 / cqm=0 / deadzone=21,11 / fast_pskip=1 / chroma_qp_offset=-2 / threads=12 / lookahead_threads=2 / sliced_threads=0 / nr=0 / decimate=1 / interlaced=0 / bluray_compat=0 / constrained_intra=0 / bframes=3 / b_pyramid=0 / b_adapt=2 / b_bias=0 / direct=3 / weightb=0 / open_gop=0 / weightp=0 / keyint=240 / keyint_min=24 / scenecut=40 / intra_refresh=0 / rc_lookahead=40 / rc=crf / mbtree=1 / crf=20.0 / qcomp=0.60 / qpmin=3 / qpmax=69 / qpstep=4 / vbv_maxrate=9500 / vbv_bufsize=9500 / crf_max=0.0 / nal_hrd=none / ip_ratio=1.40 / aq=1:1.00
Language                                 : English
Encoded date                             : UTC 2012-06-04 03:08:37
Tagged date                              : UTC 2012-06-04 05:50:57
Color primaries                          : BT.709
Transfer characteristics                 : BT.709
Matrix coefficients                      : BT.709

Video #2
ID                                       : 13
Format                                   : JPEG
Codec ID                                 : jpeg
Duration                                 : 2h 16mn
Bit rate mode                            : Variable
Bit rate                                 : 2 148 bps
Width                                    : 640 pixels
Height                                   : 272 pixels
Display aspect ratio                     : 2.35:1
Frame rate mode                          : Variable
Frame rate                               : 0.006 fps
Minimum frame rate                       : 0.002 fps
Maximum frame rate                       : 0.047 fps
Color space                              : YUV
Chroma subsampling                       : 4:2:0
Bit depth                                : 8 bits
Compression mode                         : Lossy
Bits/(Pixel*Frame)                       : 2.057
Stream size                              : 2.13 MiB (0%)
Language                                 : English
Encoded date                             : UTC 2012-06-18 03:45:43
Tagged date                              : UTC 2012-06-18 03:45:45

Audio #1
ID                                       : 2
Format                                   : AAC
Format/Info                              : Advanced Audio Codec
Format profile                           : LC
Codec ID                                 : 40
Duration                                 : 2h 16mn
Bit rate mode                            : Variable
Bit rate                                 : 165 Kbps
Maximum bit rate                         : 268 Kbps
Channel(s)                               : 2 channels
Channel positions                        : Front: L R
Sampling rate                            : 48.0 KHz
Compression mode                         : Lossy
Delay relative to video                  : 42ms
Stream size                              : 160 MiB (6%)
Language                                 : English
Encoded date                             : UTC 2012-06-04 03:08:37
Tagged date                              : UTC 2012-06-04 05:50:57

Audio #2
ID                                       : 3
Format                                   : AC-3
Format/Info                              : Audio Coding 3
Mode extension                           : CM (complete main)
Format settings, Endianness              : Big
Codec ID                                 : ac-3
Duration                                 : 2h 16mn
Bit rate mode                            : Constant
Bit rate                                 : 384 Kbps
Channel(s)                               : 6 channels
Channel positions                        : Front: L C R, Side: L R, LFE
Sampling rate                            : 48.0 KHz
Bit depth                                : 16 bits
Compression mode                         : Lossy
Delay relative to video                  : 42ms
Stream size                              : 374 MiB (14%)
Language                                 : English
Encoded date                             : UTC 2012-06-04 03:08:37
Tagged date                              : UTC 2012-06-04 05:50:57

Audio #3
ID                                       : 4
Format                                   : AAC
Format/Info                              : Advanced Audio Codec
Format profile                           : LC
Codec ID                                 : 40
Duration                                 : 2h 16mn
Bit rate mode                            : Variable
Bit rate                                 : 98.6 Kbps
Maximum bit rate                         : 169 Kbps
Channel(s)                               : 2 channels
Channel positions                        : Front: L R
Sampling rate                            : 48.0 KHz
Compression mode                         : Lossy
Delay relative to video                  : 42ms
Stream size                              : 96.0 MiB (4%)
Language                                 : English
Encoded date                             : UTC 2012-06-04 03:08:37
Tagged date                              : UTC 2012-06-04 05:50:57

Audio #4
ID                                       : 5
Format                                   : AAC
Format/Info                              : Advanced Audio Codec
Format profile                           : LC
Codec ID                                 : 40
Duration                                 : 2h 16mn
Bit rate mode                            : Variable
Bit rate                                 : 96.0 Kbps
Maximum bit rate                         : 171 Kbps
Channel(s)                               : 2 channels
Channel positions                        : Front: L R
Sampling rate                            : 48.0 KHz
Compression mode                         : Lossy
Delay relative to video                  : 42ms
Stream size                              : 95.4 MiB (4%)
Language                                 : English
Encoded date                             : UTC 2012-06-04 03:08:37
Tagged date                              : UTC 2012-06-04 05:50:57

Text #1
ID                                       : 6
Format                                   : Timed Text
Muxing mode                              : sbtl
Codec ID                                 : tx3g
Duration                                 : 2h 9mn
Bit rate mode                            : Variable
Bit rate                                 : 57 bps
Delay relative to video                  : 42ms
Stream size                              : 53.7 KiB (0%)
Language                                 : English
Encoded date                             : UTC 2012-06-18 03:45:23
Tagged date                              : UTC 2012-06-18 03:45:23

Text #2
ID                                       : 7
Format                                   : Timed Text
Muxing mode                              : sbtl
Codec ID                                 : tx3g
Duration                                 : 2h 9mn
Bit rate mode                            : Variable
Bit rate                                 : 61 bps
Delay relative to video                  : 42ms
Stream size                              : 58.5 KiB (0%)
Language                                 : English
Encoded date                             : UTC 2012-06-18 03:45:23
Tagged date                              : UTC 2012-06-18 03:45:23

Text #3
ID                                       : 8
Format                                   : Timed Text
Muxing mode                              : sbtl
Codec ID                                 : tx3g
Duration                                 : 2h 9mn
Bit rate mode                            : Variable
Bit rate                                 : 60 bps
Delay relative to video                  : 42ms
Stream size                              : 57.3 KiB (0%)
Language                                 : Spanish
Encoded date                             : UTC 2012-06-18 03:45:23
Tagged date                              : UTC 2012-06-18 03:45:23

Text #4
ID                                       : 9
Format                                   : Timed Text
Muxing mode                              : sbtl
Codec ID                                 : tx3g
Duration                                 : 2h 9mn
Bit rate mode                            : Variable
Bit rate                                 : 53 bps
Delay relative to video                  : 42ms
Stream size                              : 50.0 KiB (0%)
Language                                 : French
Encoded date                             : UTC 2012-06-18 03:45:23
Tagged date                              : UTC 2012-06-18 03:45:23

Text #5
ID                                       : 10
Format                                   : Timed Text
Muxing mode                              : sbtl
Codec ID                                 : tx3g
Duration                                 : 2h 9mn
Bit rate mode                            : Variable
Bit rate                                 : 52 bps
Delay relative to video                  : 42ms
Stream size                              : 49.0 KiB (0%)
Language                                 : Portuguese
Encoded date                             : UTC 2012-06-18 03:45:23
Tagged date                              : UTC 2012-06-18 03:45:23

Text #6
ID                                       : 11
Format                                   : Timed Text
Muxing mode                              : sbtl
Codec ID                                 : tx3g
Duration                                 : 2h 9mn
Source duration                          : 2h 9mn
Bit rate mode                            : Variable
Bit rate                                 : 51 bps
Delay relative to video                  : 42ms
Stream size                              : 48.9 KiB (0%)
Source stream size                       : 48.9 KiB (0%)
Language                                 : Portuguese
Encoded date                             : UTC 2012-06-18 03:45:23
Tagged date                              : UTC 2012-06-18 03:45:23

Menu #1
00:00:00.000                             : Opening Logos
00:00:21.229                             : The Phantom Menace
00:01:52.820                             : Short Negotiations
00:07:55.432                             : Queen Amidala
00:09:56.135                             : Landing on Naboo
00:11:18.926                             : Jar Jar Binks
00:13:24.384                             : Otah Gunga
00:14:49.886                             : Boss Nass
00:17:14.321                             : The Planet Core
00:20:41.152                             : Invasion of Theed
00:22:25.506                             : Surprise Rescue
00:25:13.048                             : Running the Blockade
00:29:32.932                             : Tatooine
00:31:41.560                             : Watto's Shop
00:35:51.810                             : Fateful Meetings
00:40:48.689                             : Dinner Conversation
00:44:16.438                             : Preparing for the Race
00:52:04.655                             : A Wager with Watto
00:55:04.000                             : Meet the Podracers
00:58:28.078                             : "Begin the Race"
01:02:27.900                             : Lap Two
01:05:33.210                             : Home Stretch
01:10:07.025                             : Collecting the Prize
01:11:18.137                             : Choosing a New Path
01:16:21.064                             : Darth Maul Attacks
01:18:08.296                             : The Queen's Worries
01:20:26.475                             : Arrival on Coruscant
01:24:18.373                             : The Jedi Council
01:26:44.852                             : Senate Session
01:29:54.791                             : Testing Anakin
01:31:02.567                             : Palpatine's Nomination
01:33:08.693                             : Anakin's Future
01:37:21.528                             : The Queen's Gambit
01:39:06.466                             : A Plea to the Gungans
01:42:33.798                             : Battle Plans
01:44:41.634                             : "Wipe Them Out"
01:46:19.314                             : Retaking the Palace
01:48:07.922                             : The Conflict Continues
01:50:25.017                             : Duel of the Fates
01:56:47.857                             : Gungan Retreat
01:59:13.127                             : Qui-Gon vs. Darth Maul
02:00:31.455                             : Capturing the Viceroy
02:01:21.379                             : Obi-Wan vs. Darth Maul
02:02:23.441                             : Control Ship Destroyed
02:03:57.159                             : A Sith Vanquished
02:05:15.278                             : Chancellor Palpatine Arrives
02:06:26.140                             : New Knight, New Apprentice
02:07:23.280                             : Farewell to a Jedi
02:08:29.054                             : Naboo Celebration
02:09:53.596                             : End Credits

Menu #2
ID                                       : 12
Codec ID                                 : text
Duration                                 : 2h 16mn
Language                                 : English
Encoded date                             : UTC 2012-06-18 03:45:23
Tagged date                              : UTC 2012-06-18 03:45:23
Bit rate mode                            : VBR
00:00:00.000                             : Opening Logos
00:00:21.229                             : The Phantom Menace
00:01:52.820                             : Short Negotiations
00:07:55.432                             : Queen Amidala
00:09:56.135                             : Landing on Naboo
00:11:18.926                             : Jar Jar Binks
00:13:24.384                             : Otah Gunga
00:14:49.886                             : Boss Nass
00:17:14.321                             : The Planet Core
00:20:41.152                             : Invasion of Theed
00:22:25.506                             : Surprise Rescue
00:25:13.048                             : Running the Blockade
00:29:32.932                             : Tatooine
00:31:41.560                             : Watto's Shop
00:35:51.810                             : Fateful Meetings
00:40:48.689                             : Dinner Conversation
00:44:16.438                             : Preparing for the Race
00:52:04.655                             : A Wager with Watto
00:55:04.000                             : Meet the Podracers
00:58:28.078                             : "Begin the Race"
01:02:27.900                             : Lap Two
01:05:33.210                             : Home Stretch
01:10:07.025                             : Collecting the Prize
01:11:18.137                             : Choosing a New Path
01:16:21.064                             : Darth Maul Attacks
01:18:08.296                             : The Queen's Worries
01:20:26.475                             : Arrival on Coruscant
01:24:18.373                             : The Jedi Council
01:26:44.852                             : Senate Session
01:29:54.791                             : Testing Anakin
01:31:02.567                             : Palpatine's Nomination
01:33:08.693                             : Anakin's Future
01:37:21.528                             : The Queen's Gambit
01:39:06.466                             : A Plea to the Gungans
01:42:33.798                             : Battle Plans
01:44:41.634                             : "Wipe Them Out"
01:46:19.314                             : Retaking the Palace
01:48:07.922                             : The Conflict Continues
01:50:25.017                             : Duel of the Fates
01:56:47.857                             : Gungan Retreat
01:59:13.127                             : Qui-Gon vs. Darth Maul
02:00:31.455                             : Capturing the Viceroy
02:01:21.379                             : Obi-Wan vs. Darth Maul
02:02:23.441                             : Control Ship Destroyed
02:03:57.159                             : A Sith Vanquished
02:05:15.278                             : Chancellor Palpatine Arrives
02:06:26.140                             : New Knight, New Apprentice
02:07:23.280                             : Farewell to a Jedi
02:08:29.054                             : Naboo Celebration
02:09:53.596                             : End Credits

link to xbmc.log

one more question:
Did the way removable media get mounted change in the recent release?
If I wanted to have SYSTEM and Storage mounted at boot (assuming I am booting from NFS) what would be the recommended way? (mount in autostart?)

Thanks a lot

M


Messages In This Thread
AW: RE: - by DieterLumpen - 2013-07-29, 20:50
include guires switch? - by hpbaxxter - 2013-08-01, 21:46
RE: dual audio?? - by pootler - 2013-08-03, 17:13
Help, watch 3D Film on Non 3D TV - by unix72 - 2013-08-09, 12:39
Remote Controllers - by tfft - 2013-08-14, 09:11
rbej repeatable crash - by RichG - 2013-08-19, 12:43
RE: OpenELEC Testbuilds for RaspberryPi Part 2 - by mcarni - 2013-09-02, 17:08
New Tester - by theneverstill - 2013-10-03, 17:16