OpenELEC Testbuilds for RaspberryPi Part 2
Popconrmix,

I tested some more (closed all doors, sat at 10cm from the TV and asked the wife to listen too...) and I am positive that with "no_hdmi_resample=1" there is crackling while with the same option set to 0 there is no crackling.

Note. Crackling is not loud has it happened in the past, I am not sure it happens always at teh same time in teh video...I am guessing not... but I am not positive...I am pretty sure it was not there in January's builds...


I set the option to 1 and 0 at least a couple of times and I tested on 2 different files.

Code:
General
Unique ID                                : 240485375586551065839140109386908067029 (0xB4EBCC713DF03CDAA57D64BC32B664D5)
Complete name                            : The.Big.Bang.Theory.S07E15.720p.HDTV.X264-DIMENSION.mkv
Format                                   : Matroska
Format version                           : Version 2
File size                                : 486 MiB
Duration                                 : 20mn 10s
Overall bit rate                         : 3 366 Kbps
Encoded date                             : UTC 2014-02-06 15:18:21
Writing application                      : mkvmerge v3.1.0 ('Happy up here') built on Jan 19 2010 12:09:24
Writing library                          : libebml v0.7.9 + libmatroska v0.8.1

Video
ID                                       : 1
Format                                   : AVC
Format/Info                              : Advanced Video Codec
Format profile                           : [email protected]
Format settings, CABAC                   : Yes
Format settings, ReFrames                : 8 frames
Codec ID                                 : V_MPEG4/ISO/AVC
Duration                                 : 20mn 10s
Bit rate                                 : 2 915 Kbps
Width                                    : 1 280 pixels
Height                                   : 720 pixels
Display aspect ratio                     : 16:9
Frame rate mode                          : Constant
Frame rate                               : 23.976 fps
Color space                              : YUV
Chroma subsampling                       : 4:2:0
Bit depth                                : 8 bits
Scan type                                : Progressive
Bits/(Pixel*Frame)                       : 0.132
Stream size                              : 421 MiB (87%)
Writing library                          : x264 core 142 r2389 956c8d8
Encoding settings                        : cabac=1 / ref=8 / deblock=1:-2:-2 / analyse=0x3:0x113 / me=umh / subme=9 / psy=1 / psy_rd=1.00:0.00 / mixed_ref=1 / me_range=24 / chroma_me=1 / trellis=1 / 8x8dct=1 / cqm=0 / deadzone=21,11 / fast_pskip=0 / chroma_qp_offset=-2 / threads=18 / lookahead_threads=2 / sliced_threads=0 / nr=0 / decimate=1 / interlaced=0 / bluray_compat=0 / constrained_intra=0 / bframes=5 / b_pyramid=2 / b_adapt=2 / b_bias=0 / direct=3 / weightb=1 / open_gop=0 / weightp=2 / keyint=250 / keyint_min=23 / scenecut=40 / intra_refresh=0 / rc_lookahead=50 / rc=crf / mbtree=1 / crf=18.0 / qcomp=0.60 / qpmin=0 / qpmax=69 / qpstep=4 / ip_ratio=1.40 / aq=1:1.00
Language                                 : English
Default                                  : No
Forced                                   : No

Audio
ID                                       : 2
Format                                   : AC-3
Format/Info                              : Audio Coding 3
Mode extension                           : CM (complete main)
Format settings, Endianness              : Big
Codec ID                                 : A_AC3
Duration                                 : 20mn 10s
Bit rate mode                            : Constant
Bit rate                                 : 384 Kbps
Channel count                            : 6 channels
Channel positions                        : Front: L C R, Side: L R, LFE
Sampling rate                            : 48.0 KHz
Bit depth                                : 16 bits
Compression mode                         : Lossy
Delay relative to video                  : 100ms
Stream size                              : 55.4 MiB (11%)
Default                                  : Yes
Forced                                   : No

Code:
General
Unique ID                                : 73125951452437806637309620611805096709 (0x37038BC4206E77FC1CEB9623FA5C2B05)
Complete name                            : CSI.S14E14.720p.HDTV.X264-DIMENSION.mkv
Format                                   : Matroska
Format version                           : Version 4 / Version 2
File size                                : 1.14 GiB
Duration                                 : 42mn 25s
Overall bit rate                         : 3 854 Kbps
Encoded date                             : UTC 2014-02-06 03:38:41
Writing application                      : mkvmerge v6.7.0 ('Back to the Ground') 64bit built on Jan  8 2014 14:31:51
Writing library                          : libebml v1.3.0 + libmatroska v1.4.1

Video
ID                                       : 1
Format                                   : AVC
Format/Info                              : Advanced Video Codec
Format profile                           : [email protected]
Format settings, CABAC                   : Yes
Format settings, ReFrames                : 5 frames
Codec ID                                 : V_MPEG4/ISO/AVC
Duration                                 : 42mn 25s
Bit rate                                 : 3 393 Kbps
Width                                    : 1 276 pixels
Height                                   : 716 pixels
Display aspect ratio                     : 16:9
Frame rate mode                          : Constant
Frame rate                               : 23.976 fps
Color space                              : YUV
Chroma subsampling                       : 4:2:0
Bit depth                                : 8 bits
Scan type                                : Progressive
Bits/(Pixel*Frame)                       : 0.155
Stream size                              : 1.01 GiB (88%)
Writing library                          : x264 core 142 r2389 956c8d8
Encoding settings                        : cabac=1 / ref=5 / deblock=1:1:1 / analyse=0x3:0x113 / me=umh / subme=8 / psy=1 / psy_rd=1.00:0.00 / mixed_ref=1 / me_range=16 / chroma_me=1 / trellis=1 / 8x8dct=1 / cqm=0 / deadzone=21,11 / fast_pskip=0 / chroma_qp_offset=-2 / threads=16 / lookahead_threads=4 / sliced_threads=0 / nr=0 / decimate=1 / interlaced=0 / bluray_compat=0 / constrained_intra=0 / bframes=5 / b_pyramid=2 / b_adapt=2 / b_bias=0 / direct=3 / weightb=1 / open_gop=0 / weightp=2 / keyint=250 / keyint_min=23 / scenecut=40 / intra_refresh=0 / rc_lookahead=50 / rc=crf / mbtree=1 / crf=18.0 / qcomp=0.60 / qpmin=0 / qpmax=69 / qpstep=4 / ip_ratio=1.40 / aq=1:1.00
Language                                 : English
Default                                  : No
Forced                                   : No
Matrix coefficients                      : BT.709

Audio
ID                                       : 2
Format                                   : AC-3
Format/Info                              : Audio Coding 3
Mode extension                           : CM (complete main)
Format settings, Endianness              : Big
Codec ID                                 : A_AC3
Duration                                 : 42mn 25s
Bit rate mode                            : Constant
Bit rate                                 : 384 Kbps
Channel count                            : 6 channels
Channel positions                        : Front: L C R, Side: L R, LFE
Sampling rate                            : 48.0 KHz
Bit depth                                : 16 bits
Compression mode                         : Lossy
Stream size                              : 117 MiB (10%)
Default                                  : Yes
Forced                                   : No


let me know if there is naything else you need me to check

M


Messages In This Thread
RE: OpenELEC Testbuilds for RaspberryPi Part 2 - by mcarni - 2014-02-09, 22:53
AW: RE: - by DieterLumpen - 2013-07-29, 20:50
include guires switch? - by hpbaxxter - 2013-08-01, 21:46
RE: dual audio?? - by pootler - 2013-08-03, 17:13
Help, watch 3D Film on Non 3D TV - by unix72 - 2013-08-09, 12:39
Remote Controllers - by tfft - 2013-08-14, 09:11
rbej repeatable crash - by RichG - 2013-08-19, 12:43
New Tester - by theneverstill - 2013-10-03, 17:16