OpenELEC Testbuilds for RaspberryPi Part 2
Guys,

it might be my system that has some problem, but I am starting to think there are some files that don't play well with dvdplayer.

mediainfo:
Code:
[[email protected]_vasiliy ~]$ mediainfo /mnt/downloads/MOVIES/Monsters\ Inc\ \(2001\)\ \[1080p\]/Monsters.Inc.2001.1080p.BrRip.x264.YIFY.mp4
General
Complete name                            : /mnt/downloads/MOVIES/Monsters Inc (2001) [1080p]/Monsters.Inc.2001.1080p.BrRip.x264.YIFY.mp4
Format                                   : MPEG-4
Format profile                           : Base Media
Codec ID                                 : isom
File size                                : 1.45 GiB
Duration                                 : 1h 32mn
Overall bit rate mode                    : Variable
Overall bit rate                         : 2 250 Kbps
Encoded date                             : UTC 2012-11-20 14:22:22
Tagged date                              : UTC 2012-11-20 14:22:22

Video
ID                                       : 1
Format                                   : AVC
Format/Info                              : Advanced Video Codec
Format profile                           : [email protected]
Format settings, CABAC                   : Yes
Format settings, ReFrames                : 4 frames
Codec ID                                 : avc1
Codec ID/Info                            : Advanced Video Coding
Duration                                 : 1h 32mn
Bit rate                                 : 2 152 Kbps
Maximum bit rate                         : 9 301 Kbps
Width                                    : 1 920 pixels
Height                                   : 1 040 pixels
Display aspect ratio                     : 1.85:1
Frame rate mode                          : Constant
Frame rate                               : 23.976 fps
Color space                              : YUV
Chroma subsampling                       : 4:2:0
Bit depth                                : 8 bits
Scan type                                : Progressive
Bits/(Pixel*Frame)                       : 0.045
Stream size                              : 1.39 GiB (96%)
Writing library                          : x264 core 125 r2200 999b753
Encoding settings                        : cabac=1 / ref=4 / deblock=1:0:0 / analyse=0x3:0x113 / me=hex / subme=7 / psy=1 / psy_rd=1.00:0.00 / mixed_ref=1 / me_range=16 / chroma_me=1 / trellis=1 / 8x8dct=1 / cqm=0 / deadzone=21,11 / fast_pskip=1 / chroma_qp_offset=-2 / threads=3 / lookahead_threads=1 / sliced_threads=0 / nr=0 / decimate=1 / interlaced=0 / bluray_compat=0 / constrained_intra=0 / bframes=8 / b_pyramid=2 / b_adapt=1 / b_bias=0 / direct=1 / weightb=1 / open_gop=0 / weightp=2 / keyint=240 / keyint_min=23 / scenecut=40 / intra_refresh=0 / rc_lookahead=40 / rc=2pass / mbtree=1 / bitrate=2152 / ratetol=1.0 / qcomp=0.60 / qpmin=0 / qpmax=69 / qpstep=4 / cplxblur=20.0 / qblur=0.5 / ip_ratio=1.40 / aq=1:1.00
Encoded date                             : UTC 2012-11-20 14:22:22
Tagged date                              : UTC 2012-11-20 14:24:35

Audio
ID                                       : 2
Format                                   : AAC
Format/Info                              : Advanced Audio Codec
Format profile                           : LC
Codec ID                                 : 40
Duration                                 : 1h 32mn
Bit rate mode                            : Variable
Bit rate                                 : 96.0 Kbps
Maximum bit rate                         : 144 Kbps
Channel count                            : 2 channels
Channel positions                        : Front: L R
Sampling rate                            : 48.0 KHz
Compression mode                         : Lossy
Stream size                              : 63.3 MiB (4%)
Language                                 : English
Encoded date                             : UTC 2012-11-20 14:24:31
Tagged date                              : UTC 2012-11-20 14:24:35

with dvdplayer I get sound but only black picture, I can bring up the OSD, pause, FF etc but only black picture.
If I play it with omxplayer teh file plays fine.

This is the log:
log

Please let me know if there is any info that you need

m


Messages In This Thread
RE: OpenELEC Testbuilds for RaspberryPi Part 2 - by mcarni - 2014-02-25, 21:24
AW: RE: - by DieterLumpen - 2013-07-29, 20:50
include guires switch? - by hpbaxxter - 2013-08-01, 21:46
RE: dual audio?? - by pootler - 2013-08-03, 17:13
Help, watch 3D Film on Non 3D TV - by unix72 - 2013-08-09, 12:39
Remote Controllers - by tfft - 2013-08-14, 09:11
rbej repeatable crash - by RichG - 2013-08-19, 12:43
New Tester - by theneverstill - 2013-10-03, 17:16