OpenELEC Testbuilds for RaspberryPi Part 2
I hope this is enough, if not please tell me (I have googled the command to use...)
Thanks for your help

avprobe version 0.8.1-4:0.8.1-0ubuntu1~oneiric1, Copyright © 2007-2011 the Libav developers
built on Apr 17 2012 13:09:28 with gcc 4.6.1
[wmv3 @ 0x9f52d00] Extra data: 8 bits left, value: 0
Input #0, asf, from 'sample.wmv':
Metadata:
WMFSDKVersion : 12.0.7601.17514
WMFSDKNeeded : 0.0.0.0000
IsVBR : 0
Duration: 00:04:46.59, start: 0.000000, bitrate: 12199 kb/s
Stream #0.0: Audio: wmav2, 48000 Hz, 2 channels, s16, 192 kb/s
Stream #0.1: Video: wmv3 (Main), yuv420p, 1920x1080, 12000 kb/s, 29.97 tbr, 1k tbn, 1k tbc
[wmv3 @ 0x9f52d00] Extra data: 8 bits left, value: 0


Messages In This Thread
RE: OpenELEC Testbuilds for RaspberryPi Part 2 - by anonimo2001 - 2014-03-06, 21:19
AW: RE: - by DieterLumpen - 2013-07-29, 20:50
include guires switch? - by hpbaxxter - 2013-08-01, 21:46
RE: dual audio?? - by pootler - 2013-08-03, 17:13
Help, watch 3D Film on Non 3D TV - by unix72 - 2013-08-09, 12:39
Remote Controllers - by tfft - 2013-08-14, 09:11
rbej repeatable crash - by RichG - 2013-08-19, 12:43
New Tester - by theneverstill - 2013-10-03, 17:16