OpenELEC Testbuilds for RaspberryPi Part 2
(2014-03-06, 21:19)anonimo2001 Wrote: Stream #0.0: Audio: wmav2, 48000 Hz, 2 channels, s16, 192 kb/s
Stream #0.1: Video: wmv3 (Main), yuv420p, 1920x1080, 12000 kb/s, 29.97 tbr, 1k tbn, 1k tbc

Can you try Milhouse's latest build.
If this fixes your file then that's useful evidence for getting the fix into Gotham.


Messages In This Thread
RE: OpenELEC Testbuilds for RaspberryPi Part 2 - by popcornmix - 2014-03-07, 12:42
AW: RE: - by DieterLumpen - 2013-07-29, 20:50
include guires switch? - by hpbaxxter - 2013-08-01, 21:46
RE: dual audio?? - by pootler - 2013-08-03, 17:13
Help, watch 3D Film on Non 3D TV - by unix72 - 2013-08-09, 12:39
Remote Controllers - by tfft - 2013-08-14, 09:11
rbej repeatable crash - by RichG - 2013-08-19, 12:43
New Tester - by theneverstill - 2013-10-03, 17:16