•   
  • 1
  • 38
  • 39
  • 40
  • 41
  • 42(current)
Win HOW TO - Configure Kodi DSPlayer with LAV Filters, XySubFilter & madVR
I don't see anything wrong. When you select an item and press C, is Play Using... available?
Reply
I can confirm after trying multi file and folder setups, it now works with single file formats but does not like work with BDMV folder structure or direct .iso single file? playback does nothing when select the movie i wish to play or with ctrl c or play using selected players just does not load anything,,Am I missing a file in kodi user data structure or playercorefactory.xml file formatting to allow me this to all so work with BDMV or ISO folder structure playback using dsplayer madvr ?
Reply
brazen in this forum has a lot of experience with ISO files and BDMV folders. You should ask him: 229692 (thread).
Reply
(2019-03-07, 21:06)MrUltron Wrote: I can confirm after trying multi file and folder setups, it now works with single file formats but does not like work with BDMV folder structure or direct .iso single file? playback does nothing when select the movie i wish to play or with ctrl c or play using selected players just does not load anything,,Am I missing a file in kodi user data structure or playercorefactory.xml file formatting to allow me this to all so work with BDMV or ISO folder structure playback using dsplayer madvr ?
Or are you trying to do this with DSPlayer? If you are using DSPlayer, you are stuck with digital files without proper support for disc images or folder structures.
Reply
Hi again thank you for your response I can now confirm ive gotten a little further with the external player playback with Kodi v17.6 and the playercorefactory.xml file it now allows me to playback BDMV folder structure and uses the external player MPC-HC and MadVR in Kodi v17.6 ,,but still no joy in allowing it to open a .iso file in the same way just fails and does nothing when the film selected? where am I going wrong or is the revision 17.6 unable to playback .iso files within kodi?
Reply
I am having a problem with some mkv's that will not play the audio.  Video is working.  Most of my mkv's work, I am finding it is the older rips that in many cases the audio is out.  If I disable DSPlayer the audio works.  I have tried updating the LAVfilters and that did not help.  I restored them to their original versions since it did fix anything.  

ohufumufey.kodi (paste)
Kodi: Gigabyte GA-B75M, i3 IvyB 3.4ghz, 8gig ram, m4 Crucial SSD, Radeon RX 580
Storage: Synology DS2415+, TheCUS N5550 running DSM 6.2 via Jun's loader
HT: LG 65C9 OLED, Pioneer VSX-LX503, Pronto TSU-9400 remote
Speakers: ProAc Super Towers (front), ProAc EBT's (rear), Mirage (center) | OS: Win 10 x64, Eventghost
Reply
Can you post the the MediaInfo for the audio track? Maybe something is odd about the way it was encoded. I've yet to encounter a file that didn't have audio.

Edit: I'll look at your log file and see if it's in there.
Reply
Can you switch from Directsound to Wasapi in Kodi settings and try again?
Kodi Matrix 19.0 HDR Edition - Aeon MQ8 2.9.0 - RTX 2080 Ti - i9 9900K - LG C7 OLED - Setup
Reply
I can't tell what went wrong from your log. As noted above, try toggling between having exclusive mode on or off in the DSPlayer settings menu. Also post the MediaInfo of the available audio tracks, if possible.

Did you check the sound settings menu during playback to see if you can change to another available audio track?
Reply
(2019-09-05, 13:21)Warner306 Wrote: I can't tell what went wrong from your log. As noted above, try toggling between having exclusive mode on or off in the DSPlayer settings menu. Also post the MediaInfo of the available audio tracks, if possib
Did you check the sound settings menu during playback to see if you can change to another available audio track?

Sorry for the delay, I was not subscribed to the thread.

Most of the mkv rips only have a single audio track.  Here are a few examples that do not work:

Audio
ID                                       : 2
Format                                   : DTS
Format/Info                              : Digital Theater Systems
Codec ID                                 : A_DTS
Duration                                 : 2 h 30 min
Bit rate mode                            : Constant
Bit rate                                 : 1 509 kb/s
Channel(s)                               : 6 channels
Channel layout                           : C L R Ls Rs LFE
Sampling rate                            : 48.0 kHz
Frame rate                               : 93.750 FPS (512 SPF)
Bit depth                                : 24 bits
Compression mode                         : Lossy
Stream size                              : 1.59 GiB (15%)
Language                                 : English
Default                                  : Yes
Forced                                   : Yes



ID                                       : 2
Format                                   : DTS
Format/Info                              : Digital Theater Systems
Codec ID                                 : A_DTS
Duration                                 : 1 h 57 min
Bit rate mode                            : Constant
Bit rate                                 : 1 510 kb/s
Channel(s)                               : 6 channels
Channel layout                           : C L R Ls Rs LFE
Sampling rate                            : 48.0 kHz
Frame rate                               : 93.750 FPS (512 SPF)
Bit depth                                : 24 bits
Compression mode                         : Lossy
Stream size                              : 1.24 GiB (16%)
Title                                    : English DTS 5.1 @ 1.536 kbps (from TrueHD)
Language                                 : English
Default                                  : Yes
Forced                                   : No



ID                                       : 2
Format                                   : DTS
Format/Info                              : Digital Theater Systems
Codec ID                                 : A_DTS
Duration                                 : 1 h 50 min
Bit rate mode                            : Constant
Bit rate                                 : 1 510 kb/s
Channel(s)                               : 6 channels
Channel layout                           : C L R Ls Rs LFE
Sampling rate                            : 48.0 kHz
Frame rate                               : 93.750 FPS (512 SPF)
Bit depth                                : 24 bits
Compression mode                         : Lossy
Stream size                              : 1.17 GiB (14%)
Title                                    : English DTS 5.1 @ 1.536 kbps (from TrueHD)
Language                                 : English
Default                                  : Yes
Forced                                   : No


ID                                       : 2
Format                                   : DTS
Format/Info                              : Digital Theater Systems
Codec ID                                 : A_DTS
Duration                                 : 2 h 16 min
Bit rate mode                            : Constant
Bit rate                                 : 1 509 kb/s
Channel(s)                               : 6 channels
Channel layout                           : C L R Ls Rs LFE
Sampling rate                            : 48.0 kHz
Frame rate                               : 93.750 FPS (512 SPF)
Bit depth                                : 24 bits
Compression mode                         : Lossy
Stream size                              : 1.44 GiB (13%)
Language                                 : English
Default                                  : Yes
Forced                                   : No
Kodi: Gigabyte GA-B75M, i3 IvyB 3.4ghz, 8gig ram, m4 Crucial SSD, Radeon RX 580
Storage: Synology DS2415+, TheCUS N5550 running DSM 6.2 via Jun's loader
HT: LG 65C9 OLED, Pioneer VSX-LX503, Pronto TSU-9400 remote
Speakers: ProAc Super Towers (front), ProAc EBT's (rear), Mirage (center) | OS: Win 10 x64, Eventghost
Reply
It looks like I have the problem solved, after playing some mkv's to find the ones that did not work, it turned out they were all DTS audio.  DTS-HD was working.

I turned off DTS bit streaming which allowed audio to come through as PCM.  I then noticed the switch 'Use DTS-HD framing for all DTS types" was on. I turned back on DTS bit streaming and turned off DTS-HD framing and now they work great!
Kodi: Gigabyte GA-B75M, i3 IvyB 3.4ghz, 8gig ram, m4 Crucial SSD, Radeon RX 580
Storage: Synology DS2415+, TheCUS N5550 running DSM 6.2 via Jun's loader
HT: LG 65C9 OLED, Pioneer VSX-LX503, Pronto TSU-9400 remote
Speakers: ProAc Super Towers (front), ProAc EBT's (rear), Mirage (center) | OS: Win 10 x64, Eventghost
Reply
Yes, you should almost never check that option in LAV Audio.
Reply
  •   
  • 1
  • 38
  • 39
  • 40
  • 41
  • 42(current)
 
Thread Rating:
  • 7 Vote(s) - 4.86 Average



Logout Mark Read Team Forum Stats Members Help
HOW TO - Configure Kodi DSPlayer with LAV Filters, XySubFilter & madVR4.867