Vero 4K+ Review: Finally, a Native Kodi 4K + 3D Do-it-All Player?
#94
Good to hear, but wow on Kodi 18 reaching .8, almost to 19 Matrix.

On a different note, the C-band MPEG4 4:2:2 sample I pointed you to earlier doesn't play on my Shield either, nor on any of my other media players (Zidoo Z9S, Fire TV 4K or ODROID-N2 w/CE). But, at least I get audio on Vero & N2. Only my i5 PC plays it perfectly. Wonder what about it makes set-top media players choke on it; here's the mediainfo for it...
Code:
General
Unique ID : 279102779691158194600790023158366326498 (0xD1F93D76FD68F7BB4829D62FD461CEE2)
Complete name : Y:\Concerts\Content_XYZ.mkv
Format : Matroska
Format version : Version 4
File size : 28.2 GiB
Duration : 2 h 10 min
Overall bit rate : 30.9 Mb/s
Encoded date : UTC 2020-06-09 23:40:34
Writing application : mkvmerge v46.0.0 ('No Deeper Escape') 64-bit
Writing library : libebml v1.3.10 + libmatroska v1.5.2

Video
ID : 1
Format : AVC
Format/Info : Advanced Video Codec
Format profile : High 4:2:[email protected]
Format settings : CABAC / 4 Ref Frames
Format settings, CABAC : Yes
Format settings, Reference frames : 4 frames
Codec ID : V_MPEG4/ISO/AVC
Duration : 2 h 10 min
Bit rate : 30.5 Mb/s
Width : 1 920 pixels
Height : 1 080 pixels
Display aspect ratio : 16:9
Frame rate mode : Variable
Frame rate : 50.000 FPS
Original frame rate : 25.000 FPS
Color space : YUV
Chroma subsampling : 4:2:2
Bit depth : 8 bits
Scan type : Interlaced
Scan type, store method : Separated fields
Scan order : Top Field First
Bits/(Pixel*Frame) : 0.294
Stream size : 27.9 GiB (99%)
Language : English
Default : Yes
Forced : No
Color range : Limited
Color primaries : BT.709
Transfer characteristics : BT.709
Matrix coefficients : BT.709

Audio
ID : 2
Format : MPEG Audio
Format version : Version 1
Format profile : Layer 2
Codec ID : A_MPEG/L2
Codec ID/Hint : MP2
Duration : 2 h 10 min
Bit rate mode : Constant
Bit rate : 384 kb/s
Channel(s) : 2 channels
Sampling rate : 48.0 kHz
Frame rate : 41.667 FPS (1152 SPF)
Compression mode : Lossy
Delay relative to video : 134 ms
Stream size : 360 MiB (1%)
Language : English
Default : Yes
Forced : No

Same with w/the 1080i MPEG2 4:2:2 samples as well in the Kodi a/v wiki. Only the 720p 4:2:2 sample plays.
Reply


Messages In This Thread
RE: Vero 4K+ Review: Finally, a Native Kodi 4K + 3D Do-it-All Player? - by hdmkv - 2020-06-14, 23:45


Logout Mark Read Team Forum Stats Members Help
Vero 4K+ Review: Finally, a Native Kodi 4K + 3D Do-it-All Player?1
This forum uses Lukasz Tkacz MyBB addons.