WeTek Core (24p HD Netflix / HD Audio / Lollipop / OpenELEC / 4K / HEVC)
Can anyone help with my core, i am running openelec insgard final 15.2 from the wetek forum and i appear to be having some strange issue with some of my movies all of them having the issue appear to be with mp4 files, if i pause or fast forward the movie is starts going out of sync with the sound. All other formats work fine, i have a mixture of MKV's and all of these are ok. I have attached the medinfo file below. Is there an issue with mp4 video on the wetek core?? this is surprising as it will play anything else i throw at it, more larger files and much higher bitrate material. I have read elsewhere about issues with mp4 but this appear to be an amlogic issue, is this correct??

General
Format : MPEG-4
Format profile : Base Media
Codec ID : isom
File size : 812 MiB
Duration : 1h 45mn
Overall bit rate mode : Variable
Overall bit rate : 1 073 Kbps
Encoded date : UTC 2014-01-29 08:18:37
Tagged date : UTC 2014-01-29 08:18:37

Video
ID : 1
Format : AVC
Format/Info : Advanced Video Codec
Format profile : [email protected]
Format settings, CABAC : Yes
Format settings, ReFrames : 4 frames
Codec ID : avc1
Codec ID/Info : Advanced Video Coding
Duration : 1h 45mn
Bit rate : 975 Kbps
Maximum bit rate : 7 101 Kbps
Width : 1 280 pixels
Height : 536 pixels
Display aspect ratio : 2.40:1
Frame rate mode : Constant
Frame rate : 23.976 fps
Color space : YUV
Chroma subsampling : 4:2:0
Bit depth : 8 bits
Scan type : Progressive
Bits/(Pixel*Frame) : 0.059
Stream size : 738 MiB (91%)
Writing library : x264 core 135 r2 f0c1c53
Encoding settings : cabac=1 / ref=4 / deblock=1:-1:-1 / analyse=0x3:0x133 ip_ratio=1.40 / aq=1:1.00
Encoded date : UTC 2014-01-29 08:18:37
Tagged date : UTC 2014-01-29 08:18:50
Color range : Limited
Color primaries : BT.709
Matrix coefficients : BT.709

Audio
ID : 2
Format : AAC
Format/Info : Advanced Audio Codec
Format profile : LC
Codec ID : 40
Duration : 1h 45mn
Bit rate mode : Variable
Bit rate : 93.7 Kbps
Maximum bit rate : 105 Kbps
Channel(s) : 2 channels
Channel positions : Front: L R
Sampling rate : 48.0 KHz
Compression mode : Lossy
Stream size : 70.9 MiB (9%)
Language : English
Encoded date : UTC 2014-01-29 08:18:47
Tagged date : UTC 2014-01-29 08:18:50
Reply
 
Thread Rating:
  • 4 Vote(s) - 4.75 Average


Messages In This Thread
RE: WeTek Core 4K - by wesk05 - 2015-09-15, 08:36
RE: WeTek Core 4K - by Skank - 2015-09-15, 09:59
RE: WeTek Core 4K - by droidelec - 2015-09-18, 18:11
RE: WeTek Core 4K - by movie78 - 2015-09-18, 18:18
RE: WeTek Core 4K - by wesk05 - 2015-09-18, 19:02
RE: WeTek Core 4K - by looun - 2015-09-18, 22:58
RE: WeTek Core 4K - by wesk05 - 2015-09-18, 23:39
RE: WeTek Core 4K - by BORIStheBLADE - 2015-09-19, 00:56
RE: WeTek Core 4K - by SilverBlade - 2015-09-19, 02:43
RE: WeTek Core 4K - by noggin - 2015-09-19, 11:13
RE: WeTek Core 4K - by wesk05 - 2015-09-19, 20:13
RE: WeTek Core 4K - by movie78 - 2015-09-19, 23:21
RE: WeTek Core 4K - by wrxtasy - 2015-10-05, 06:48
RE: WeTek Core 4K - by tomvs123 - 2015-10-09, 23:15
RE: WeTek Core 4K - by wrxtasy - 2015-10-10, 02:55
RE: WeTek Core 4K - by tomvs123 - 2015-10-10, 04:19
RE: WeTek Core 4K - by noggin - 2015-10-10, 10:15
RE: WeTek Core 4K - by wrxtasy - 2015-10-13, 11:27
RE: WeTek Core 4K - by couto27 - 2015-10-13, 12:40
RE: WeTek Core 4K - by wrxtasy - 2015-10-13, 14:33
WeTek Core 4K - by tredman - 2015-10-13, 13:57
RE: WeTek Core 4K - by hdmkv - 2015-10-13, 14:02
RE: WeTek Core 4K - by tomvs123 - 2015-10-13, 14:04
RE: WeTek Core 4K - by wrxtasy - 2015-10-13, 15:20
RE: WeTek Core 4K - by hdmkv - 2015-10-13, 15:54
RE: WeTek Core 4K - by wrxtasy - 2015-10-13, 17:00
RE: WeTek Core 4K - by gredawarha - 2015-10-13, 15:06
RE: WeTek Core 4K - by wrxtasy - 2015-10-13, 15:57
RE: WeTek Core 4K - by vineet381 - 2015-10-13, 15:23
RE: WeTek Core 4K - by tredman - 2015-10-13, 15:27
RE: WeTek Core 4K - by gredawarha - 2015-10-13, 15:29
RE: WeTek Core 4K - by vineet381 - 2015-10-13, 15:44
RE: WeTek Core 4K - by gredawarha - 2015-10-13, 16:53
RE: WeTek Core 4K - by Atinkler - 2015-10-13, 17:04
RE: WeTek Core 4K - by wrxtasy - 2015-10-13, 17:38
RE: WeTek Core 4K - by hdmkv - 2015-10-13, 17:06
RE: WeTek Core 4K - by zag - 2015-10-13, 17:06
RE: WeTek Core 4K - by hdmkv - 2015-10-13, 17:10
RE: WeTek Core 4K - by Atinkler - 2015-10-13, 17:43
RE: WeTek Core 4K - by wrxtasy - 2015-10-13, 17:56
RE: WeTek Core 4K - by Atinkler - 2015-10-13, 18:06
RE: WeTek Core 4K - by hdmkv - 2015-10-13, 17:44
RE: WeTek Core 4K - by droidelec - 2015-10-13, 17:50
RE: WeTek Core 4K - by wrxtasy - 2015-10-15, 05:56
RE: WeTek Core 4K - by mwake - 2015-11-25, 14:56
RE: WeTek Core (24p HD Netflix / HD Audio / Lollipop / OpenELEC / 4K / HEVC) - by gaskell1066 - 2016-03-13, 21:09


Logout Mark Read Team Forum Stats Members Help
WeTek Core (24p HD Netflix / HD Audio / Lollipop / OpenELEC / 4K / HEVC)4.754