Thread Closed
v17 LibreELEC Testbuilds for RaspberryPi (Kodi 17.0)
hi, its been a while. eden,frodo cant remember. lol
thanks for making this custom bleeding edge build.

I know you have not announced #701 yet, but the stalker pvr client is broken in this version.
it loads channels fine but can not play them back. the 'busy' wheel just keeps spinning in kodi after trying to open a channel, ands I am getting this repeated in the log:
Code:
03:04:57 528.633179 T:1797256096   DEBUG: ffmpeg[6B1FF3A0]: [http] HTTP error 403 Forbidden
03:04:57 528.633911 T:1797256096   DEBUG: ffmpeg[6B1FF3A0]: [hls,applehttp] Failed to open segment of playlist 0
03:04:57 528.673584 T:1797256096   DEBUG: ffmpeg[6B1FF3A0]: [http] HTTP error 403 Forbidden
03:04:57 528.674255 T:1797256096   DEBUG: ffmpeg[6B1FF3A0]: [hls,applehttp] Failed to open segment of playlist 0
03:04:57 528.710205 T:1797256096   DEBUG: ffmpeg[6B1FF3A0]: [http] HTTP error 403 Forbidden
03:04:57 528.710876 T:1797256096   DEBUG: ffmpeg[6B1FF3A0]: [hls,applehttp] Failed to open segment of playlist 0
03:04:57 528.824158 T:1960742912   DEBUG: Keyboard: scancode: 0x2d, sym: 0x0078, unicode: 0x0078, modifier: 0x0
03:04:57 529.102722 T:1960742912   DEBUG: OnKey: x (0xf058) pressed, action is Stop
03:04:57 529.103027 T:1960742912  NOTICE: CVideoPlayer::CloseFile()
03:04:57 529.103210 T:1960742912  NOTICE: VideoPlayer: waiting for threads to exit
03:05:07 538.712769 T:1797256096   DEBUG: ffmpeg[6B1FF3A0]: [http] HTTP error 403 Forbidden
03:05:07 538.713562 T:1797256096   DEBUG: ffmpeg[6B1FF3A0]: [hls,applehttp] Failed to open segment of playlist 0
03:05:13 544.312744 T:1797256096   DEBUG: ffmpeg[6B1FF3A0]: [http] HTTP error 403 Forbidden
03:05:13 544.313538 T:1797256096   DEBUG: ffmpeg[6B1FF3A0]: [hls,applehttp] Failed to open segment of playlist 0
03:05:24 555.471802 T:1797256096   DEBUG: ffmpeg[6B1FF3A0]: [http] HTTP error 403 Forbidden
03:05:24 555.472595 T:1797256096   DEBUG: ffmpeg[6B1FF3A0]: [hls,applehttp] Failed to open segment of playlist 0
03:05:27 558.576294 T:1797256096   ERROR: ffmpeg[6B1FF3A0]: [hls,applehttp] Error when loading first segment '
with 630 I get \/ after trying to open the link:
Code:
03:31:42 893.317200 T:1594880928    INFO: ffmpeg[5F0FF3A0]: Input #0, hls,applehttp, http://xx.xx.xx
INFO: ffmpeg[5F0FF3A0]:   Duration: N/A, start: 13210.212000, bitrate: N/A
03:31:42 893.317871 T:1594880928    INFO: ffmpeg[5F0FF3A0]:   Program 0
03:31:42 893.318054 T:1594880928    INFO: ffmpeg[5F0FF3A0]:     Metadata:
03:31:42 893.318359 T:1594880928    INFO: ffmpeg[5F0FF3A0]:       variant_bitrate : 0
03:31:42 893.319153 T:1594880928    INFO: ffmpeg[5F0FF3A0]:     Stream #0:0: Data: timed_id3 (ID3  / 0x20334449)
03:31:42 893.320129 T:1594880928    INFO: ffmpeg[5F0FF3A0]:     Stream #0:1: Video: h264 (Main) ([27][0][0][0] / 0x001B), yuv420p, 720x480 [SAR 10:11 DAR 15:11], 59.94 fps, 29.97 tbr, 90k tbn, 59.94 tbc
03:31:42 893.320923 T:1594880928    INFO: ffmpeg[5F0FF3A0]:     Stream #0:2: Audio: mp2 ([4][0][0][0] / 0x0004), 48000 Hz, stereo, s16p, 128 kb/s
03:31:42 893.321167 T:1594880928   DEBUG: CDVDDemuxFFmpeg::AddStream ID: 0
03:31:42 893.321350 T:1594880928   DEBUG: CDVDDemuxFFmpeg::AddStream ID: 1
03:31:42 893.321594 T:1594880928   DEBUG: CDVDDemuxFFmpeg::AddStream ID: 2
03:31:42 893.329102 T:1594880928   DEBUG: COMXCoreComponent::Initialize OMX.broadcom.clock input port 80 output port 81 m_handle 0x63f3b080
03:31:42 893.330872 T:1594880928   DEBUG: OMXClock::OMXStop
03:31:42 893.331482 T:1594880928   DEBUG: OMXClock::OMXSetSpeed(0.000) pause_resume:1
03:31:42 893.332031 T:1594880928  NOTICE: Opening stream: 1 source: 256
03:31:42 893.332703 T:1594880928   DEBUG: DllBcm: Using omx system library
03:31:42 893.336060 T:1594880928   DEBUG: COMXCoreComponent::Initialize OMX.broadcom.video_decode input port 130 output port 131 m_handle 0x6193cd70
03:31:42 893.340027 T:1594880928   DEBUG: COMXCoreComponent::AllocInputBuffers component(OMX.broadcom.video_decode) - port(130), nBufferCountMin(1), nBufferCountActual(120), nBufferSize(81920), nBufferAlignmen(16)
03:31:42 893.381897 T:1594880928   DEBUG: COMXVideo::Open - decoder_component(0x0x6193cd70), input_port(0x82), output_port(0x83) deinterlace 1 hdmiclocksync 1
03:31:42 893.382263 T:1594880928    INFO: OMXPlayerVideo::OpenDecoder : Video codec omx-h264 width 720 height 480 profile 77 fps 29.970030
and so forth..i tried swapping between versions many times to rule out a freak incident. :/
I dont know if the above means anything to you, seems to have something todo with ffmpeg.
anyway I can provide more info, and test 'test' versions if you need it.
  Thread Closed
 
Thread Rating:
  • 19 Vote(s) - 4.63 Average


Messages In This Thread
RE: LibreELEC Testbuilds for RaspberryPi (Kodi 17.0) - by tuxen - 2016-07-02, 03:28
RPi2: no DV-codec? - by bubi - 2016-07-10, 10:30
DV-video not working - by bubi - 2016-07-15, 19:48


Logout Mark Read Team Forum Stats Members Help
LibreELEC Testbuilds for RaspberryPi (Kodi 17.0)4.6319