Thread Closed
v17 LibreELEC Testbuilds for RaspberryPi (Kodi 17.0)
Hello!
I'm having issues with my old SD-DV-avis (type 2).
On my RPi2 with purchased MPEG2-codec active, the videos don't decode, though this ancient codec should've been implemented anywhere right now. FourCC: dvsd
Audio is decoded, btw.
Any hints what to do?
Code:
General
Complete name                            : C:\TMP\2000.03.28_09.44.17.avi
Format                                   : AVI
Format/Info                              : Audio Video Interleave
Commercial name                          : DV
File size                                : 344 MiB
Duration                                 : 1 min
Overall bit rate mode                    : Constant
Overall bit rate                         : 30.3 Mb/s
Recorded date                            : 2000-03-28 09:44:17.000
Writing library                          : VirtualDub build 32661/release

Video
ID                                       : 0
Format                                   : DV
Codec ID                                 : dvsd
Codec ID/Hint                            : Sony
Duration                                 : 1 min
Bit rate mode                            : Constant
Bit rate                                 : 24.4 Mb/s
Encoded bit rate                         : 28.8 Mb/s
Width                                    : 720 pixels
Height                                   : 576 pixels
Display aspect ratio                     : 4:3
Frame rate mode                          : Constant
Frame rate                               : 25.000 FPS
Standard                                 : PAL
Color space                              : YUV
Chroma subsampling                       : 4:2:0
Bit depth                                : 8 bits
Scan type                                : Interlaced
Scan order                               : Bottom Field First
Compression mode                         : Lossy
Bits/(Pixel*Frame)                       : 2.357
Time code of first frame                 : 00:00:30:01
Time code source                         : Subcode time code
Stream size                              : 327 MiB (95%)

Audio
ID                                       : 1
Format                                   : PCM
Format settings, Endianness              : Little
Format settings, Sign                    : Signed
Codec ID                                 : 1
Duration                                 : 1 min
Bit rate mode                            : Constant
Bit rate                                 : 1 536 kb/s
Channel(s)                               : 2 channels
Sampling rate                            : 48.0 kHz
Bit depth                                : 16 bits
Stream size                              : 17.4 MiB (5%)
Alignment                                : Aligned on interleaves
Interleave, duration                     : 40  ms (1.00 video frame)
Interleave, preload duration             : 500  ms
  Thread Closed
 
Thread Rating:
  • 19 Vote(s) - 4.63 Average


Messages In This Thread
RPi2: no DV-codec? - by bubi - 2016-07-10, 10:30
DV-video not working - by bubi - 2016-07-15, 19:48


Logout Mark Read Team Forum Stats Members Help