Thread Closed
v17 LibreELEC Testbuilds for RaspberryPi (Kodi 17.0)
(2016-08-19, 01:21)markius Wrote: Is there any reason that LibreElec wouldn't be able to play this file:

Code:
[email protected]:/home/hts# mediainfo Olympics\ 2016\:\ Basketball.ts
General
ID                                       : 2043 (0x7FB)
Complete name                            : Olympics 2016: Basketball.ts
Format                                   : MPEG-TS
File size                                : 53.9 MiB
Duration                                 : 30s 696ms
Overall bit rate mode                    : Variable
Overall bit rate                         : 14.6 Mbps

Video
ID                                       : 512 (0x200)
Menu ID                                  : 1081 (0x439)
Format                                   : AVC
Format/Info                              : Advanced Video Codec
Format profile                           : [email protected]
Format settings, CABAC                   : Yes
Format settings, ReFrames                : 4 frames
Format settings, GOP                     : M=4, N=12
Codec ID                                 : 27
Duration                                 : 30s 600ms
Bit rate                                 : 13.7 Mbps
Width                                    : 1 920 pixels
Height                                   : 1 080 pixels
Display aspect ratio                     : 16:9
Frame rate                               : 25.000 fps
Color space                              : YUV
Chroma subsampling                       : 4:2:0
Bit depth                                : 8 bits
Scan type                                : Interlaced
Scan order                               : Top Field First
Bits/(Pixel*Frame)                       : 0.265
Stream size                              : 50.1 MiB (93%)
Color primaries                          : BT.709
Transfer characteristics                 : BT.709
Matrix coefficients                      : BT.709

Audio
ID                                       : 660 (0x294)
Menu ID                                  : 1081 (0x439)
Format                                   : MPEG Audio
Format version                           : Version 1
Format profile                           : Layer 2
Codec ID                                 : 4
Duration                                 : 30s 648ms
Bit rate mode                            : Constant
Bit rate                                 : 192 Kbps
Channel(s)                               : 2 channels
Sampling rate                            : 48.0 KHz
Compression mode                         : Lossy
Delay relative to video                  : -510ms
Stream size                              : 718 KiB (1%)
Language                                 : English

Menu
ID                                       : 256 (0x100)
Menu ID                                  : 1081 (0x439)
Duration                                 : 30s 696ms
List                                     : 512 (0x200) (AVC) / 660 (0x294) (MPEG Audio, English)
Language                                 :  / English
Service name                             : BBC Olym 1 HD
Service provider                         : BSkyB
Service type                             : advanced codec HD digital television

It plays in WMP and VLC without a problem. On LibreElec I just get black screen.
I'm running LibreELEC (Milhouse) - Version: devel-20160817225656-#0817-g81237d7 [Build #0817]


I think you need to purchase the two codecs from the raspberry foundation, mpg2 and wvc1.
But 1st try enabling allow hardware acceleration - mmal. Its in the settings, under player/videos.
  Thread Closed
 
Thread Rating:
  • 19 Vote(s) - 4.63 Average


Messages In This Thread
RPi2: no DV-codec? - by bubi - 2016-07-10, 10:30
DV-video not working - by bubi - 2016-07-15, 19:48
RE: LibreELEC Testbuilds for RaspberryPi (Kodi 17.0) - by bmonster - 2016-08-19, 20:49


Logout Mark Read Team Forum Stats Members Help