Thread Closed
v17 LibreELEC Testbuilds for RaspberryPi (Kodi 17.0)
It's a BDMV folder. Kodi defaults to AC3 if I play it as a BDMV title or as an individual m2ts file.

Code:
Menu ID                                  : 1 (0x1)
Format                                   : AVC
Format/Info                              : Advanced Video Codec
Format profile                           : [email protected]
Format settings, CABAC                   : Yes
Format settings, ReFrames                : 4 frames
Codec ID                                 : 27
Duration                                 : 1 h 44 min
Bit rate mode                            : Variable
Bit rate                                 : 21.3 Mb/s
Maximum bit rate                         : 38.0 Mb/s
Width                                    : 1 920 pixels
Height                                   : 1 080 pixels
Display aspect ratio                     : 16:9
Frame rate                               : 23.976 (24000/1001) FPS
Color space                              : YUV
Chroma subsampling                       : 4:2:0
Bit depth                                : 8 bits
Scan type                                : Progressive
Bits/(Pixel*Frame)                       : 0.429
Stream size                              : 15.6 GiB (89%)

Audio #1
ID                                       : 4352 (0x1100)
Menu ID                                  : 1 (0x1)
Format                                   : PCM
Format settings, Endianness              : Big
Format settings, Sign                    : Signed
Muxing mode                              : Blu-ray
Codec ID                                 : 128
Duration                                 : 1 h 44 min
Bit rate mode                            : Constant
Bit rate                                 : 1 536 kb/s
Channel(s)                               : 2 channels
Channel positions                        : Front: L R
Sampling rate                            : 48.0 kHz
Bit depth                                : 16 bits
Stream size                              : 1.12 GiB (6%)

Audio #2
ID                                       : 4353 (0x1101)
Menu ID                                  : 1 (0x1)
Format                                   : AC-3
Format/Info                              : Audio Coding 3
Mode extension                           : CM (complete main)
Format settings, Endianness              : Big
Codec ID                                 : 129
Duration                                 : 1 h 44 min
Bit rate mode                            : Constant
Bit rate                                 : 192 kb/s
Channel(s)                               : 2 channels
Channel positions                        : Front: L R
Sampling rate                            : 48.0 kHz
Frame rate                               : 31.250 FPS (1536 spf)
Bit depth                                : 16 bits
Compression mode                         : Lossy
Stream size                              : 144 MiB (1%)
  Thread Closed
 
Thread Rating:
  • 19 Vote(s) - 4.63 Average


Messages In This Thread
RPi2: no DV-codec? - by bubi - 2016-07-10, 10:30
DV-video not working - by bubi - 2016-07-15, 19:48
RE: LibreELEC Testbuilds for RaspberryPi (Kodi 17.0) - by smp1 - 2016-11-05, 06:58


Logout Mark Read Team Forum Stats Members Help