Thread Closed
v18 LibreELEC Testbuilds for x86_64 (Kodi 18.0)
(2017-08-24, 01:33)Milhouse Wrote:
(2017-08-24, 01:29)macnb Wrote: Problem with builds #812 to #822 on my Acer Revo RL100 (with Nvidia ION GPU). Maybe previous builds too (but did not try).
Does not play movies with VC1 codec. Just get a black screen.
Audio is present and so are subtitles.

Have you tried disabling Player > Videos > Adjust display refresh rate? Set it to "Off", it's currently broken with pretty much all Nvidia, and some AMD GPUs, no ETA on a fix.

Ah ha. Forgot about that.
Yes setting "Adjust display refresh rate" to OFF gets around the issue. Thx.

BTW, from the log file, I see "unsupported stream" warning:
Code:
23:12:22.430 T:140085777389312    INFO: ffmpeg[7F6842FFD700]:   Duration: 02:40:56.19, start: 600.000000, bitrate: 16523 kb/s
23:12:22.430 T:140085777389312    INFO: ffmpeg[7F6842FFD700]:   Program 1
23:12:22.430 T:140085777389312    INFO: ffmpeg[7F6842FFD700]:     Stream #0:0[0x1011]: Video: vc1 (Advanced) (VC-1 / 0x312D4356), yuv420p(progressive), 1920x1080 [SAR 1:1 DAR 16:9], 23.98 fps, 23.98 tbr, 90k tbn, 47.95 tbc
23:12:22.430 T:140085777389312    INFO: ffmpeg[7F6842FFD700]:     Stream #0:1[0x1100](eng): Audio: ac3 (AC-3 / 0x332D4341), 48000 Hz, 5.1(side), fltp, 640 kb/s
23:12:22.431 T:140085777389312    INFO: ffmpeg[7F6842FFD700]:     Stream #0:2[0x1200](eng): Subtitle: hdmv_pgs_subtitle ([144][0][0][0] / 0x0090)
23:12:22.431 T:140085777389312   DEBUG: CDVDDemuxFFmpeg::AddStream ID: 0
23:12:22.431 T:140085777389312   DEBUG: CDVDDemuxFFmpeg::AddStream ID: 1
23:12:22.431 T:140085777389312   DEBUG: CDVDDemuxFFmpeg::AddStream ID: 2
23:12:22.431 T:140085777389312  NOTICE: Opening stream: 0 source: 256
23:12:22.431 T:140085777389312 WARNING: OpenStream - Unsupported stream 0. Stream disabled.
23:12:22.431 T:140085777389312  NOTICE: Opening stream: 1 source: 256
23:12:22.431 T:140085777389312  NOTICE: Finding audio codec for: 86019
23:12:22.431 T:140085777389312  NOTICE: Creating audio thread
23:12:22.431 T:140085777389312  NOTICE: Opening stream: 0 source: 1024
23:12:22.431 T:140085794174720   DEBUG: Thread VideoPlayerAudio start, auto delete: false
23:12:22.431 T:140085794174720  NOTICE: running thread: CVideoPlayerAudio::Process()

How is that related to "Adjust refresh rate" setting ?
  Thread Closed
 
Thread Rating:
  • 24 Vote(s) - 4.5 Average


Messages In This Thread
RE: LibreELEC Testbuilds for x86_64 (Kodi 18.0) - by macnb - 2017-08-24, 01:49